Торрент файл
скачать торрент магнет ссылка Добавлен: 14 ноя 2013, 21:18
Размер: 745.15 МБ
Сидеров: 37
Личеров: 3
Статус: (salma3)
Автор

СообщениеДобавлено: 14 ноя 2013, 21:18 

Не в сети
Зам. Админа
Аватара пользователя
Дата регистрации:
02 дек 2010, 12:39
Спасибо: 12561 / 214
Сообщения: 28070
Год выпуска: 2012
Страна: США / 10th Hole Productions, Ambush Entertainment...
Жанр: комедия
Продолжительность: 01:38:54

Перевод: Профессиональный (многоголосый, закадровый)
Cубтитры:нет
Оригинальная аудиодорожка: нет

Режиссер: Шари Спрингер Берман / Shari Springer Berman, Роберт Пульчини / Robert Pulcini

В ролях: Кристен Уиг, Аннетт Бенинг, Мэтт Диллон, Даррен Крисс, Кристофер Фицджералд, Джун Рафаэль, Наташа Лионн, Боб Бэлабан, Сидни Лукас, Джимми Палумбо...

Описание: Это история успешной нью-йоркской писательницы, которая изображает попытку самоубийства для того, чтобы вернуть экс-бойфренда.



Качество: DVDRip
Формат: AVI
Видео: 656x368 (16:9), 25.000 fps, XVID ~916 kbps avg, 0.152 bit/pixel
Аудио: Русский 48 kHz, MP3, 2 ch, 128.00 kbps Constant

Общее
Полное имя : Imodjen.2012.P.DVDRip.745MB_[New-Team]_by_avproh.avi
Формат : AVI
Формат/Информация : Audio Video Interleave
Размер файла : 745 Мбайт
Продолжительность : 1 ч. 38 м.
Общий поток : 1053 Кбит/сек
Программа кодирования : VirtualDubMod 1.5.10.3 | http://www.virtualdub-fr.org || (build 2550/release)
Библиотека кодирования : VirtualDubMod build 2550/release

Видео
Идентификатор : 0
Формат : MPEG-4 Visual
Профиль формата : Advanced Simple@L5
Параметр BVOP формата : 1
Параметр QPel формата : Нет
Параметр GMC формата : Без точки перехода
Параметр матрицы формата : Выборочная
Идентификатор кодека : XVID
Идентификатор кодека/Подсказка : XviD
Продолжительность : 1 ч. 38 м.
Битрейт : 916 Кбит/сек
Ширина : 656 пикселей
Высота : 368 пикселей
Соотношение сторон : 16:9
Частота кадров : 25,000 кадров/сек
Цветовое пространство : YUV
Субдискретизация насыщенности : 4:2:0
Битовая глубина : 8 бит
Тип развёртки : Прогрессивная
Метод сжатия : С потерями
Бит/(Пиксели*Кадры) : 0.152
Размер потока : 648 Мбайт (87%)
Библиотека кодирования : XviD 73

Аудио
Идентификатор : 1
Формат : MPEG Audio
Версия формата : Version 1
Профиль формата : Layer 3
Идентификатор кодека : 55
Идентификатор кодека/Подсказка : MP3
Продолжительность : 1 ч. 38 м.
Вид битрейта : Постоянный
Битрейт : 128 Кбит/сек
Каналы : 2 канала
Частота : 48,0 КГц
Метод сжатия : С потерями
Размер потока : 90,5 Мбайт (12%)
Выравнивание : Соединение по промежуткам
Продолжительность промежутка : 40 мс. (1,00 видеокадр)
Время предзагрузки промежутка : 504 мс.






реклама партнёра


Вернуться к началу
 Профиль  
 
   Похожие торренты   Автор   Торрент   Размер 
В этой теме нет новых непрочитанных сообщений. Tribbing To Ecstasy / Тёрка до экстаза (Girl Co. / Girl Co Films) (Rose Red, Sovereign Syre, Nikki Delano, Miss Moretti, Sinn Sage...) [2014 г., Lesbians, All Girl, DVDRip 406p]

killerslava

6 | 3

1.28 ГБ

В этой теме нет новых непрочитанных сообщений. Хорошая плохая девчонка / Good Girl, Bad Girl [Боевик, 2006] DVDRip, Mvo

salma3

32 | 4

1.46 ГБ

В этой теме нет новых непрочитанных сообщений. Трудный возраст / Girl in Progress [Драма, комедия, 2012] BDRip 720p, Mvo

salma3

36 | 6

3.72 ГБ

В этой теме нет новых непрочитанных сообщений. Принц из Нью-Йорка / Jersey Girl [драма, мелодрама, комедия, 1992] DVDRip, Dub

salma3

48 | 14

1.39 ГБ

В этой теме нет новых непрочитанных сообщений. Исчезнувшая / Gone Girl [триллер, драма, детектив, 2014] Blu-Ray [EUR], Dub+Sub [лицензия]

Dracon

6 | 5

44.3 ГБ

В этой теме нет новых непрочитанных сообщений. Исчезнувшая / Gone Girl [триллер, драма, детектив, 2014] HDRip, Dub [лицензия]

Dracon

73 | 2

2.05 ГБ

В этой теме нет новых непрочитанных сообщений. Исчезнувшая / Gone Girl [триллер, драма, детектив, 2014] HDRip, Dub [лицензия]

Dracon

187 | 6

1.46 ГБ


Начать новую тему Ответить на тему  [ 1 сообщение ] 




Для Мосгорсуда, Роскомнадзора и рекламодателей:: mosgorsud-torrent[собачка]yandex.ru