Торрент файл
скачать торрент магнет ссылка Добавлен: 12 ноя 2013, 20:57
Размер: 2.96 ГБ
Сидеров: 58
Личеров: 3
Статус: (salma3)
Автор

СообщениеДобавлено: 12 ноя 2013, 20:57 

Не в сети
Зам. Админа
Аватара пользователя
Дата регистрации:
02 дек 2010, 12:39
Спасибо: 12458 / 214
Сообщения: 27968
Год выпуска: 2012
Жанр: фантастика, ужасы, триллер
Режиссер: Дэвид Эдвардс
В ролях: Морган Элизабет Кокс, Эмили Галаш, Джордж Мадрид, Джошуа Ст. Джеймс, Ник Нейл

О фильме:
Трое случайных попутчиков: гонщик, проигравший свою машину, девушка, которую постоянно преследуют несчастья и непобедимый охотник на демонов, следуют по дороге в никуда, в попытках поймать Левиафана и избавить мир от хаоса...



Выпущено: США
Продолжительность: 01:28:18
Озвучивание: Любительское (многоголосое) [DeadSno & den904]

Формат: MKV
Качество: WEB-DL 720p [CINEMANIA]
Видео: 3942 kb/s, 1280x720
Аудио: Russian / English: AC3, 384 kb/s (6 ch)
Субтитры: English
Дополнительно: Сохранены оригинальные чаптеры как на Blu-Ray
Размер: 2.15 GB
Скачать: Сэмпл

Релиз группы:


General
CINEMANIANightscape.2012.WEB-DL.720p.CINEMANIA.mkv
Format : Matroska
Format version : Version 4 / Version 2
File size : 2.96 GiB
Duration : 1h 28mn
Overall bit rate : 4 805 Kbps
Movie name : CINEMANIA.CC
Encoded date : UTC 2013-11-12 15:45:15
Writing application : mkvmerge v6.5.0 ('Isn't she lovely') built on Oct 20 2013 12:50:05
Writing library : libebml v1.3.0 + libmatroska v1.4.1

Video
ID : 1
Format : AVC
Format/Info : Advanced Video Codec
Format profile : High@L3.1
Format settings, CABAC : No
Format settings, ReFrames : 2 frames
Format settings, GOP : N=1
Codec ID : V_MPEG4/ISO/AVC
Duration : 1h 28mn
Bit rate : 3 942 Kbps
Width : 1 280 pixels
Height : 720 pixels
Display aspect ratio : 16:9
Frame rate mode : Constant
Frame rate : 23.976 fps
Color space : YUV
Chroma subsampling : 4:2:0
Bit depth : 8 bits
Scan type : Progressive
Bits/(Pixel*Frame) : 0.178
Stream size : 2.43 GiB (82%)
Title : CINEMANIA.CC
Language : English
Default : Yes
Forced : No
Color primaries : BT.709
Transfer characteristics : BT.709
Matrix coefficients : BT.709

Audio #1
ID : 2
Format : AC-3
Format/Info : Audio Coding 3
Mode extension : CM (complete main)
Format settings, Endianness : Big
Codec ID : A_AC3
Duration : 1h 28mn
Bit rate mode : Constant
Bit rate : 384 Kbps
Channel(s) : 6 channels
Channel positions : Front: L C R, Side: L R, LFE
Sampling rate : 48.0 KHz
Bit depth : 16 bits
Compression mode : Lossy
Stream size : 243 MiB (8%)
Title : DeadSno & den904
Language : Russian
Default : Yes
Forced : Yes

Audio #2
ID : 3
Format : AC-3
Format/Info : Audio Coding 3
Mode extension : CM (complete main)
Format settings, Endianness : Big
Codec ID : A_AC3
Duration : 1h 28mn
Bit rate mode : Constant
Bit rate : 384 Kbps
Channel(s) : 6 channels
Channel positions : Front: L C R, Side: L R, LFE
Sampling rate : 48.0 KHz
Bit depth : 16 bits
Compression mode : Lossy
Stream size : 243 MiB (8%)
Language : English
Default : No
Forced : No

Text
ID : 4
Format : UTF-8
Codec ID : S_TEXT/UTF8
Codec ID/Info : UTF-8 Plain Text
Language : English
Default : No
Forced : No

Menu
00:00:00.000 : en:Chapter 1
00:11:15.000 : en:Chapter 2
00:21:15.000 : en:Chapter 3
00:31:18.000 : en:Chapter 4
00:42:57.000 : en:Chapter 5
00:51:27.000 : en:Chapter 6
01:05:40.000 : en:Chapter 7
01:18:39.000 : en:Chapter 8
01:24:06.000 : en:Chapter 9





реклама партнёра


Вернуться к началу
 Профиль  
 
   Похожие торренты   Автор   Торрент   Размер 
В этой теме нет новых непрочитанных сообщений. Ночной огонёк / Nightlight [ужасы, триллер, 2015] WEB-DL 720p, Avo+Sub

salma3

483 | 36

2.74 ГБ

В этой теме нет новых непрочитанных сообщений. Ночной драйв / Night Drive [ужасы, триллер, 2010] BDRip 720p, Mvo

salma3

48 | 3

4.51 ГБ

В этой теме нет новых непрочитанных сообщений. Побег / Escape [триллер, драма, 2012] BDRip 720p, Dvo [НТВ+]

Dracon

9 | 6

3.4 ГБ

В этой теме нет новых непрочитанных сообщений. Безумный Макс: Дорога ярости / Mad Max: Fury Road (Джордж Миллер) [фантастика, боевик, триллер, приключения, 2015] WEB-DL 720p, avo

Dracon

2 | 0

3.69 ГБ

В этой теме нет новых непрочитанных сообщений. Антивирусный / Antiviral [ужасы, фантастика, триллер, 2012] BDRip 720p, Dvo+Avo+Sub [НТВ+]

salma3

44 | 6

6.4 ГБ

В этой теме нет новых непрочитанных сообщений. Безумный Макс: Дорога ярости / Mad Max: Fury Road (Джордж Миллер) [фантастика, боевик, триллер, приключения, 2015] WEB-DL 720p, dub [Чистый звук]

Dracon

1508 | 14

3.91 ГБ

В этой теме нет новых непрочитанных сообщений. Безумный Макс: Дорога ярости / Mad Max: Fury Road (Джордж Миллер) [фантастика, боевик, триллер, приключения, 2015] BDRip 720p, Dub [iTunes]

Dracon

1196 | 63

4.69 ГБ


Начать новую тему Ответить на тему  [ 1 сообщение ] 




Для Мосгорсуда, Роскомнадзора и рекламодателей:: mosgorsud-torrent[собачка]yandex.ru