Торрент файл
скачать торрент магнет ссылка Добавлен: 09 ноя 2013, 19:46
Размер: 2.81 ГБ
Сидеров: 4
Личеров: 2
Автор

СообщениеДобавлено: 09 ноя 2013, 19:46 

Не в сети
Зам. Админа
Аватара пользователя
Дата регистрации:
02 дек 2010, 12:39
Спасибо: 12623 / 214
Сообщения: 28012
Год выхода: 2012
Жанр: драма, триллер
Режиссер: Нат Тейлор
В ролях: Кристофер Денэм, Линдсэй Бимиш, Элизабет Райс, Пол Спаркс, Анна Кэмп, Филлис Соммервиль, Джоэль де ла Фуэнте, Сара Балмас, Магдалена Бендек

О фильме:
Кевин – успешный фотограф, специализирующийся на портретных снимках. Он одержим идеей найти девушку, которая поможет ему забыть своё неприятное прошлое. В его студию часто приходят начинающие актрисы и модели. Пользуясь своим положением, он приглашает их на свидания. Большинство из них отвечают отказом, и он легко забывает о них, отвлекаясь на разные дела. Тех немногих, кто говорит «да», забыть уже не так просто. Но как забыть то, чего не помнишь?



Выпущено: США
Продолжительность: 01:25:26
Озвучивание: Любительское (двухголосое) [DeadSno & den904] - перевод на русский язык [Antonio]

Формат: MKV
Качество: WEB-DL 720p [CINEMANIA]
Видео: 3845 kb/s, 1280x544
Аудио: Russian / English: AC3, 384 kb/s (6 ch)
Субтитры: English
Дополнительно: Сохранены оригинальные чаптеры как на Blu-Ray
Размер: 2.81 GB
Скачать: Сэмпл

Релиз группы:


General
Forgetting.the.Girl.2012.WEB-DL.720p.CINEMANIA.mkv
Format : Matroska
Format version : Version 4 / Version 2
File size : 2.81 GiB
Duration : 1h 25mn
Overall bit rate : 4 706 Kbps
Movie name : CINEMANIA.CC
Encoded date : UTC 2013-11-09 14:28:38
Writing application : mkvmerge v6.5.0 ('Isn't she lovely') built on Oct 20 2013 12:50:05
Writing library : libebml v1.3.0 + libmatroska v1.4.1

Video
ID : 1
Format : AVC
Format/Info : Advanced Video Codec
Format profile : Main@L3.1
Format settings, CABAC : No
Format settings, ReFrames : 2 frames
Codec ID : V_MPEG4/ISO/AVC
Duration : 1h 25mn
Bit rate : 3 845 Kbps
Width : 1 280 pixels
Height : 544 pixels
Display aspect ratio : 2.35:1
Frame rate mode : Constant
Frame rate : 23.976 fps
Color space : YUV
Chroma subsampling : 4:2:0
Bit depth : 8 bits
Scan type : Progressive
Bits/(Pixel*Frame) : 0.230
Stream size : 2.29 GiB (82%)
Title : CINEMANIA.CC
Language : English
Default : Yes
Forced : No
Color primaries : BT.709
Transfer characteristics : BT.709
Matrix coefficients : BT.709

Audio #1
ID : 2
Format : AC-3
Format/Info : Audio Coding 3
Mode extension : CM (complete main)
Format settings, Endianness : Big
Codec ID : A_AC3
Duration : 1h 25mn
Bit rate mode : Constant
Bit rate : 384 Kbps
Channel(s) : 6 channels
Channel positions : Front: L C R, Side: L R, LFE
Sampling rate : 48.0 KHz
Bit depth : 16 bits
Compression mode : Lossy
Stream size : 235 MiB (8%)
Title : DeadSno & den904
Language : Russian
Default : Yes
Forced : Yes

Audio #2
ID : 3
Format : AC-3
Format/Info : Audio Coding 3
Mode extension : CM (complete main)
Format settings, Endianness : Big
Codec ID : A_AC3
Duration : 1h 25mn
Bit rate mode : Constant
Bit rate : 384 Kbps
Channel(s) : 6 channels
Channel positions : Front: L C R, Side: L R, LFE
Sampling rate : 48.0 KHz
Bit depth : 16 bits
Compression mode : Lossy
Stream size : 235 MiB (8%)
Language : English
Default : No
Forced : No

Text
ID : 4
Format : UTF-8
Codec ID : S_TEXT/UTF8
Codec ID/Info : UTF-8 Plain Text
Language : English
Default : No
Forced : No

Menu
00:00:00.000 : en:Kevin
00:06:15.000 : en:Yes
00:13:10.000 : en:Yearning
00:21:56.000 : en:Friends
00:30:57.000 : en:Missing
00:40:11.000 : en:Romance
00:51:55.000 : en:Unraveling
01:00:44.000 : en:Forgetting
01:06:00.000 : en:Farewell
01:10:44.000 : en:Bathtub
01:15:45.000 : en:Remembering
01:20:35.000 : en:Credits





реклама партнёра


Вернуться к началу
 Профиль  
 
   Похожие торренты   Автор   Торрент   Размер 
В этой теме нет новых непрочитанных сообщений. Я Знаю Эту Девушку 26 / I Know That Girl 26 (2015) DVDRip

salma3

5 | 0

1.61 ГБ

В этой теме нет новых непрочитанных сообщений. Я Знаю Эту Девушку 29 / I Know That Girl 29 (2016) DVDRip

salma3

5 | 0

1.88 ГБ

В этой теме нет новых непрочитанных сообщений. Забывая себя / Vergiss mein Ich (Ян Шомбург) [2014, драма, DVDRip] Sub

Nickolas3435

87 | 6

1.46 ГБ

В этой теме нет новых непрочитанных сообщений. [BrownBunnies.com / BangBros.com] Jenna Foxx - Forgetting The Ex (bkb16080 / 25.08.2017) [Amatuer, Black, Blowjob, Brunette, Busty, Cow Girl, Cum In Mouth, Cum Shot, Doggystyle, Ebony, Hairy, Hardcore, Missionary, Riding, Vaginal, Young]

salma3

38 | 13

284 МБ

В этой теме нет новых непрочитанных сообщений. I Know That Girl 23 / Я Знаю Эту Девушку 23 (MOFOS) (Christina Snow, Kiara Knight, Nora Sky, Kodi Gamble, Kira Kennedy...) [2015 г., Straight, 18+ Teens, Gonzo, DVDRip 400p]

friizze

0 | 3

1.57 ГБ

В этой теме нет новых непрочитанных сообщений. Трудный возраст / Girl in Progress [Драма, комедия, 2012] BDRip 720p, Mvo

salma3

36 | 6

3.72 ГБ

В этой теме нет новых непрочитанных сообщений. Девушка по вызову / Call Girl [триллер, драма, 2012] BDRemux 1080p, Dvo [НТВ+]

salma3

17 | 9

35.84 ГБ


Начать новую тему Ответить на тему  [ 1 сообщение ] 




Для Мосгорсуда, Роскомнадзора и рекламодателей:: mosgorsud-torrent[собачка]yandex.ru