Торрент файл
скачать торрент магнет ссылка Добавлен: 08 ноя 2013, 16:25
Размер: 1.37 ГБ
Сидеров: 15
Личеров: 2
Статус: (salma3)
Автор

СообщениеДобавлено: 08 ноя 2013, 16:25 

Не в сети
Супермодератор
Аватара пользователя
Дата регистрации:
15 фев 2012, 16:44
Возраст: 27
Спасибо: 5130 / 2089
Сообщения: 17350
Ничего себе поездочка 2: Смерть впереди / Joy Ride 2: Dead Ahead

Год выпуска: 2008
Режиссер: Луи Морно
Жанр: триллер, криминал

В ролях: Ники Линн Ококс, Дэниэл Бойло, Роб Карпентер, Ребекка Дэвис, Марк Гиббон, Лаура Джордан, Крис Калун, Кэтрин Киркпатрик, Кайл Шмид, Шон Тайсон

Описание:
По дороге в Лас Вегас на рок-концерт у четвёрки друзей ломается машина. Решив позаимствовать чужой автомобиль, они и не подозревали, что он на самом деле принадлежит маньяку по кличке Ржавый ноготь, которого факт пропажи транспортного средства сильно опечалил.



Страна: США, Канада
Продолжительность: 01:27:24
Перевод: Профессиональный (многоголосый, закадровый)

Файл
Качество: DVDRip-AVC
Формат файла: MKV
Видео кодек: H.264
Аудио кодек: AC3
Видео: 720x400 (16:9), 25.00 fps, ~1884 kbps, 0.25 bit/pixel
Аудио: 48 kHz, AC3 Dolby Digital, 3/2 (L,C,R,l,r) + LFE ch, ~384 kbps avg







Общее
Уникальный идентификатор : 249679986916299485924463678591532961673 (0xBBD69DC7E8E88B4EA0EFB35187568F89)
Полное имя : C:\Загрузки\Nichego.sebe.poezdochka.2.mkv
Формат : Matroska
Версия формата : Version 1
Размер файла : 1,37 Гбайт
Продолжительность : 1 ч. 27 м.
Общий поток : 2239 Кбит/сек
Название фильма : Joy Ride: Dead Ahead (200 [Rip by drundel]
Дата кодирования : UTC 2008-12-16 10:41:01
Программа кодирования : mkvmerge v2.4.0 ('Fumbling Towards Ecstasy') built on Oct 11 2008 20:13:15
Библиотека кодирования : libebml v0.7.7 + libmatroska v0.8.1
Attachment : Yes

Видео
Идентификатор : 1
Формат : AVC
Формат/Информация : Advanced Video Codec
Профиль формата : High@L3.0
Параметр CABAC формата : Да
Параметр ReFrames формата : 5 кадров
Идентификатор кодека : V_MPEG4/ISO/AVC
Продолжительность : 1 ч. 27 м.
Битрейт : 1852 Кбит/сек
Ширина : 720 пикселей
Высота : 400 пикселей
Соотношение сторон : 16:9
Режим частоты кадров : Постоянный
Частота кадров : 25,000 кадров/сек
Цветовое пространство : YUV
Субдискретизация насыщенности : 4:2:0
Битовая глубина : 8 бит
Тип развёртки : Прогрессивная
Бит/(Пиксели*Кадры) : 0.257
Размер потока : 1,11 Гбайт (81%)
Заголовок : x264: [720x400 / 25 fps / ~1852 kbps]
Библиотека кодирования : x264 core 65 r1046kVAQmod 71d34b4
Настройки программы : cabac=1 / ref=5 / deblock=1:-2:-1 / analyse=0x3:0x113 / me=umh / subme=7 / psy_rd=0.5:0.4 / mixed_ref=1 / me_range=16 / chroma_me=1 / trellis=2 / 8x8dct=1 / cqm=0 / deadzone=21,11 / chroma_qp_offset=-8 / threads=1 / thread_queue=1 / nr=0 / decimate=1 / mbaff=0 / bframes=3 / b_pyramid=1 / b_adapt=2 / b_bias=0 / direct=3 / wpredb=1 / keyint=250 / keyint_min=25 / scenecut=40 / rc=2pass / bitrate=1852 / ratetol=1.0 / qcomp=0.60 / qpmin=10 / qpmax=51 / qpstep=4 / cplxblur=20.0 / qblur=0.5 / ip_ratio=1.40 / pb_ratio=1.30 / aq=1:1.20:1:8.10 / zones=125578,131115,q=40
Язык : English
Default : Да
Forced : Нет

Аудио
Идентификатор : 2
Формат : AC-3
Формат/Информация : Audio Coding 3
Расширение режима : CM (complete main)
Параметр Endianness формата : Big
Идентификатор кодека : A_AC3
Продолжительность : 1 ч. 27 м.
Вид битрейта : Постоянный
Битрейт : 384 Кбит/сек
Каналы : 6 каналов
Расположение каналов : Front: L C R, Side: L R, LFE
Частота : 48,0 КГц
Битовая глубина : 16 бит
Метод сжатия : С потерями
Задержка видео : 15 мс.
Размер потока : 240 Мбайт (17%)
Заголовок : AC3: [6 ch / 48 kHz / ~384 kbps]
Язык : Russian
Default : Да
Forced : Нет





реклама партнёра


Вернуться к началу
 Профиль Отправить личное сообщение  
 
   Похожие торренты   Автор   Торрент   Размер 
В этой теме нет новых непрочитанных сообщений. Ничего себе поездочка 3 / Joy Ride 3 [Триллер, 2014] HDRip, Avo

salma3

722 | 25

1.26 ГБ

В этой теме нет новых непрочитанных сообщений. Ничего себе поездочка 3 / Joy Ride 3 [Триллер, 2014] HDRip, Avo

salma3

388 | 19

1.37 ГБ

В этой теме нет новых непрочитанных сообщений. Ничего себе поездочка 3 / Joy Ride 3 [триллер, 2014] BDRip 720p, Mvo+Sub

salma3

39 | 3

5.66 ГБ

В этой теме нет новых непрочитанных сообщений. Ничего себе поездочка 3 / Joy Ride 3 [триллер, 2014] BDRip 1080p, Avo+Sub

salma3

99 | 7

8.06 ГБ

В этой теме нет новых непрочитанных сообщений. Ничего себе поездочка 3 / Joy Ride 3 [триллер, 2014] BDRip 720p, Avo+Sub

salma3

288 | 12

4.49 ГБ

В этой теме нет новых непрочитанных сообщений. Ничего себе поездочка / Joy Ride [триллер, драма, детектив, 2001] BDRip, Dub

salma3

289 | 25

1.45 ГБ

В этой теме нет новых непрочитанных сообщений. Ничего себе поездочка 3 / Joy Ride 3 (Деклан О’Брайэн) [Триллер, 2014] HDRip, Mvo

Dracon

12 | 3

1.46 ГБ


Начать новую тему Ответить на тему  [ 1 сообщение ] 




Для Мосгорсуда, Роскомнадзора и рекламодателей:: mosgorsud-torrent[собачка]yandex.ru