Торрент файл
скачать торрент магнет ссылка Добавлен: 06 ноя 2013, 14:30
Размер: 1.36 ГБ
Сидеров: 112
Личеров: 9
Статус: (salma3)
Автор

СообщениеДобавлено: 06 ноя 2013, 14:30 

В сети
Супермодератор
Аватара пользователя
Дата регистрации:
15 фев 2012, 16:44
Возраст: 27
Спасибо: 5139 / 2089
Сообщения: 17430
Код 11-14 / Code 11-14

Год выпуска: 2003
Жанр: Детектив
Режиссер: Жан Де Сегонзак

В ролях: Дэвид Джеймс Эллиотт, Терри Фаррелл, Стивен Лэнг, Нэнси Чэмберс, Сандра Белл, Джессика Беттс, Джейн Холл, Бен Харкин, Брюс Хьюз, Майлс Джеффри, Герард Магвайр, Росс Мэрсден, Робин Мензес, Пол Меркурио, Питер О’Брайэн, Даг Пенти


Описание: Агент ФБР Курт Новак участвует в розысках серийного убийцы-маньяка, фотографирующего своих жертв- женщин перед тем, как их убить, и оставляющего фотографии рядом с мертвыми телами. Получив сообщение о поимке преступника в Австралии, начальство направило туда Курта. Вместо того, чтобы оставить жену и сына дома, он решил совместить приятное с полезным и взял их с собой. Хотя австралийская полиция уверена в том, что поймала настоящего убийцу, у Курта на этот счет имеются сильные сомнения. И они вполне оправданны. Маньяк-преступник наносит новый удар — на этот раз на борту трансокеанского авиалайнера, на котором Курт с семьей возвращаются домой в Лос-Анджелес. Сможет ли Курт найти и обезвредить преступника прежде, чем тот уничтожит самолет и всех его пассажиров?



Страна: США
Продолжительность: 01:25:31
Перевод: Профессиональный [многоголосый]

Файл
Качество: DVDRip
Формат файла: AVI
Видео кодек: XviD
Аудио кодек: AC3
Видео: 704x528 (1.33:1), 23.976 fps, XviD ~1891 kbps avg, 0.21 bit/pixel
Аудио: 48 kHz, AC3 5.0 ~384.00 kbps avg

Общее
Полное имя : D:1АААКод 11-14.avi
Формат : AVI
Формат/Информация : Audio Video Interleave
Размер файла : 1,36 Гбайт
Продолжительность : 1 ч. 25 м.
Общий поток : 2285 Кбит/сек
Программа кодирования : VirtualDubMod 1.5.10.3 | http://www.virtualdub-fr.org || (build 2550/release)
Библиотека кодирования : VirtualDubMod build 2550/release

Видео
Идентификатор : 0
Формат : MPEG-4 Visual
Профиль формата : Advanced Simple@L5
Параметр BVOP формата : 2
Параметр QPel формата : Нет
Параметр GMC формата : Без точки перехода
Параметр матрицы формата : Default (H.263)
Режим смешивания : Сжатый битовый поток
Идентификатор кодека : XVID
Идентификатор кодека/Подсказка : XviD
Продолжительность : 1 ч. 25 м.
Битрейт : 1892 Кбит/сек
Ширина : 704 пикселя
Высота : 528 пикселей
Соотношение сторон : 4:3
Частота кадров : 23,976 кадра/сек
Цветовое пространство : YUV
Субдискретизация насыщенности : 4:2:0
Битовая глубина : 8 бит
Тип развёртки : Прогрессивная
Метод сжатия : С потерями
Бит/(Пиксели*Кадры) : 0.212
Размер потока : 1,13 Гбайт (83%)
Библиотека кодирования : XviD 1.2.1 (UTC 2008-12-04)

Аудио
Идентификатор : 1
Формат : AC-3
Формат/Информация : Audio Coding 3
Расширение режима : CM (complete main)
Параметр Endianness формата : Big
Идентификатор кодека : 2000
Продолжительность : 1 ч. 25 м.
Вид битрейта : Постоянный
Битрейт : 384 Кбит/сек
Каналы : 5 каналов
Расположение каналов : Front: L C R, Side: L R
Частота : 48,0 КГц
Битовая глубина : 16 бит
Метод сжатия : С потерями
Размер потока : 235 Мбайт (17%)
Выравнивание : Разделение по промежуткам
Продолжительность промежутка : 42 мс. (1,00 видеокадр)
Время предзагрузки промежутка : 500 мс.




Релиз группа:Автор рипа:




реклама партнёра


Вернуться к началу
 Профиль Отправить личное сообщение  
 
   Похожие торренты   Автор   Торрент   Размер 
В этой теме нет новых непрочитанных сообщений. Four-O-Five Code - Four-O-Five Code [2013, Melodic Death Metal, MP3]

PriZraK

0 | 1

119.35 МБ

В этой теме нет новых непрочитанных сообщений. Чёрный код / Code Black [02x09 из 16] [Триллер, драма, детектив, 2016] WEB-DLRip, Mvo [IdeaFilm]

salma3

29 | 49

5.14 ГБ

В этой теме нет новых непрочитанных сообщений. Чёрный код / Code Black [02x01-06 из 16] ( Триллер, драма, детектив, 2016) WEB-DLRip | IdeaFilm

marya111

9 | 8

3.42 ГБ

В этой теме нет новых непрочитанных сообщений. Код 100 / The Hundred Code [S01] (Роберт Мореско, Андреас Ёманн) [детектив, криминал, драма, 2015] WEB-DL 1080p [Первый канал]

Dracon

33 | 28

18.12 ГБ

В этой теме нет новых непрочитанных сообщений. Код 100 / The Hundred Code [S01] (Роберт Мореско, Андреас Ёманн) [детектив, криминал, драма, 2015] WEB-DL 720p [Первый канал]

Dracon

1304 | 638

12.03 ГБ

В этой теме нет новых непрочитанных сообщений. Код 100 / The Hundred Code [S01] (Роберт Мореско, Андреас Ёманн) [детектив, криминал, драма, 2015] WEB-DLRip [Первый канал]

Dracon

69 | 12

5.9 ГБ

В этой теме нет новых непрочитанных сообщений. Реанимация / Code Black [S01] (Адам Кэйн, Крис Мисиано) [2015, Триллер, драма, детектив, WEB-DLRip | Amedia]

Nickolas3435

0 | 0

7.69 ГБ


Начать новую тему Ответить на тему  [ 1 сообщение ] 




Для Мосгорсуда, Роскомнадзора и рекламодателей:: mosgorsud-torrent[собачка]yandex.ru