Торрент файл
скачать торрент магнет ссылка Добавлен: 05 ноя 2013, 19:36
Размер: 1.46 ГБ
Сидеров: 69
Личеров: 9
Статус: (salma3)
Автор

СообщениеДобавлено: 05 ноя 2013, 19:36 

Не в сети
Супермодератор
Аватара пользователя
Дата регистрации:
15 фев 2012, 16:44
Возраст: 27
Спасибо: 5146 / 2090
Сообщения: 17514
Аватар / Avatar: Cyber Wars

Год выпуска: 2004
Жанр: Фантастика, боевик
Режиссер: Джиан Хонг Куо

В ролях: Женевьев О’Рейли, Лоюн Ван, г Кэй Сиу, Лим Дэвид, Чэнь Майкл, Уорнер Джоан, Де Меса Генри, О Ремеш Паникер, Уильям Сэндерсон Т. Саситаран


Описание: Мегаполис Синтаван, год 2023. Личность каждого жителя города подключена к глобальной сети «Киберлинк» и это позволяет властям не только контролировать уровень преступности, но и установить тотальный контроль над каждым… Только отчаянные преступники-нейроморфы, изредка бросают вызов безупречной системе. Именно за такими изгоями охотится Дэш МакКензи — наемница с безупречной репутацией. Но однажды ей поручают необычное задание — найти важного сотрудника могущественной корпорации, скрывшегося от своих хозяев при помощи нейроморфинга. И чем дальше продвигается это сложное дело, тем больше Дэш убеждается в том, что привычная реальность — изощренная иллюзия, а люди вокруг — всего лишь пешки в руках могущественных игроков, которым подвластны судьбы целых наций…



Страна: Сингапур
Продолжительность: 01:37:56
Перевод: Профессиональный [многоголосый]

Файл
Качество: DVDRip
Формат файла: AVI
Видео кодек: XviD
Аудио кодек: AC3
Видео: 704x400 (1.76:1), 23.976 fps, XviD ~1222 kbps avg, 0.18 bit/pixel
Аудио: #1: 48 kHz, AC3 6.0 ~448.00 kbps avg (RUS)
Аудио: #2: 48 kHz, AC3 6.0 ~448.00 kbps avg (ENG)


Общее
Полное имя : D:1ААААватар.avi
Формат : AVI
Формат/Информация : Audio Video Interleave
Размер файла : 1,46 Гбайт
Продолжительность : 1 ч. 37 м.
Общий поток : 2133 Кбит/сек
Программа кодирования : VirtualDubMod 1.5.10.2 (build 2540/release)
Библиотека кодирования : VirtualDubMod build 2540/release

Видео
Идентификатор : 0
Формат : MPEG-4 Visual
Профиль формата : Advanced Simple@L5
Параметр BVOP формата : 2
Параметр QPel формата : Нет
Параметр GMC формата : Без точки перехода
Параметр матрицы формата : Default (H.263)
Режим смешивания : Сжатый битовый поток
Идентификатор кодека : XVID
Идентификатор кодека/Подсказка : XviD
Продолжительность : 1 ч. 37 м.
Битрейт : 1223 Кбит/сек
Ширина : 704 пикселя
Высота : 400 пикселей
Соотношение сторон : 16:9
Частота кадров : 23,976 кадра/сек
Цветовое пространство : YUV
Субдискретизация насыщенности : 4:2:0
Битовая глубина : 8 бит
Тип развёртки : Прогрессивная
Метод сжатия : С потерями
Бит/(Пиксели*Кадры) : 0.181
Размер потока : 857 Мбайт (57%)
Библиотека кодирования : XviD 1.2.1 (UTC 2008-12-04)

Аудио #1
Идентификатор : 1
Формат : AC-3
Формат/Информация : Audio Coding 3
Расширение режима : CM (complete main)
Параметр Endianness формата : Big
Идентификатор кодека : 2000
Продолжительность : 1 ч. 37 м.
Вид битрейта : Постоянный
Битрейт : 448 Кбит/сек
Каналы : 6 каналов
Расположение каналов : Front: L C R, Side: L R, LFE
Частота : 48,0 КГц
Битовая глубина : 16 бит
Метод сжатия : С потерями
Размер потока : 314 Мбайт (21%)
Выравнивание : Разделение по промежуткам
Продолжительность промежутка : 42 мс. (1,00 видеокадр)
Время предзагрузки промежутка : 500 мс.

Аудио #2
Идентификатор : 2
Формат : AC-3
Формат/Информация : Audio Coding 3
Расширение режима : CM (complete main)
Параметр Endianness формата : Big
Идентификатор кодека : 2000
Продолжительность : 1 ч. 37 м.
Вид битрейта : Постоянный
Битрейт : 448 Кбит/сек
Каналы : 6 каналов
Расположение каналов : Front: L C R, Side: L R, LFE
Частота : 48,0 КГц
Битовая глубина : 16 бит
Метод сжатия : С потерями
Размер потока : 314 Мбайт (21%)
Выравнивание : Разделение по промежуткам
Продолжительность промежутка : 42 мс. (1,00 видеокадр)
Время предзагрузки промежутка : 500 мс.



Релиз группа:Автор рипа:




реклама партнёра


Вернуться к началу
 Профиль Отправить личное сообщение  
 
   Похожие торренты   Автор   Торрент   Размер 
В этой теме нет новых непрочитанных сообщений. Киборг - охотник / Cyber Tracker [фантастика, боевик, 1994] DVDRip, Avo

salma3

17 | 4

1.46 ГБ

В этой теме нет новых непрочитанных сообщений. Киборг - охотник / Cyber Tracker [фантастика, боевик, 1994] DVDRip, Mvo [ТВ-3]

salma3

67 | 12

1.46 ГБ

В этой теме нет новых непрочитанных сообщений. Аватар: Легенда об Аанге Книга первая / Avatar: The Last Airbender The book the First [Сезон: 1 / Серии: 20] [приключения, фэнтези, 2005] DVD9, Dub

hobbit1021

0 | 3

31.86 ГБ

В этой теме нет новых непрочитанных сообщений. Аватар: Легенда об Аанге Книга 3.Огонь / Avatar: The Last Airbender The book 3.Fire [Сезон: 3 / Серии: 21] [Мультсериал, приключения, фэнтези, 2007] DVD9, Dub

hobbit1021

1 | 2

28.79 ГБ

В этой теме нет новых непрочитанных сообщений. Войны за воду / Water wars (Сирио Х. Сантьяго, Джим Уайнорски) [2014, Фантастика, боевик, DVDRip] dvo

Nickolas3435

134 | 8

747.4 МБ

В этой теме нет новых непрочитанных сообщений. Татуировка / Cyber Bandits [фантастика, триллер, криминал, 1995] DVDRip, Dvo

salma3

19 | 2

1.45 ГБ

В этой теме нет новых непрочитанных сообщений. Дорожные войны / Road Wars [фантастика, боевик, 2015] HDRip, Avo

salma3

90 | 7

1.37 ГБ


Начать новую тему Ответить на тему  [ 1 сообщение ] 




Для Мосгорсуда, Роскомнадзора и рекламодателей:: mosgorsud-torrent[собачка]yandex.ru