Торрент файл
скачать торрент магнет ссылка Добавлен: 04 ноя 2013, 23:03
Размер: 1.46 ГБ
Сидеров: 11
Личеров: 2
Статус: (salma3)
Автор

СообщениеДобавлено: 04 ноя 2013, 23:03 

Не в сети
Супермодератор
Аватара пользователя
Дата регистрации:
15 фев 2012, 16:44
Возраст: 27
Спасибо: 5143 / 2090
Сообщения: 17495
Дядюшка Бак / Дядя Бак / Uncle Buck

Год выпуска: 1989
Страна: США
Жанр: комедия, драма
Продолжительность: 01:39:45
Перевод: Профессиональный (дублированный)
Русские субтитры: нет

Режиссер: Джон Хьюз / John Hughes

В ролях: Джон Кэнди, Джин Луиза Келли, Габи Хоффманн, Маколей Калкин, Эми Мэдиган, Элейн Бромка, Гэррет М. Браун, Лори Меткаф, Джей Андервуд, Брайан Тарантина
Описание: Ленивого, добродушного дядюшку-холостяка просят позаботиться о племянниках на время семейного кризиса их родителей. К дяде Баку те обратились от отчаяния: больше оставить детей не с кем. Но немного везения, много любви, и дядя Бак сумеет всех удивить.



Качество: HDRip
Формат: AVI
Видео кодек: XviD
Аудио кодек: AC3
Видео: 704x384 (1.83:1), 23.976 fps, XviD build 73 ~1896 kbps avg, 0.29 bit/pixel
Аудио: 48 kHz, AC3 Dolby Digital, 2/0 (L,R) ch, ~192 kbps

Раздача от:

D:Мои рипыUncle.Buck.1989.HDRip.dexter_lex.avi
General
Complete name : D:Мои рипыUncle.Buck.1989.HDRip.dexter_lex.avi
Format : AVI
Format/Info : Audio Video Interleave
File size : 1.46 GiB
Duration : 1h 39mn
Overall bit rate : 2 098 Kbps
Writing application : VirtualDubMod 1.5.10.3 | http://www.virtualdub-fr.org || (build 2550/release)
Writing library : VirtualDubMod build 2550/release
Video #0
ID : 0
Format : MPEG-4 Visual
Format profile : Advanced Simple@L5
Format settings, BVOP : 1
Format settings, QPel : No
Format settings, GMC : No warppoints
Format settings, Matrix : Custom
Codec ID : XVID
Codec ID/Hint : XviD
Duration : 1h 39mn
Bit rate : 1 897 Kbps
Width : 704 pixels
Height : 384 pixels
Display aspect ratio : 16:9
Frame rate : 23.976 fps
Color space : YUV
Chroma subsampling : 4:2:0
Bit depth : 8 bits
Scan type : Progressive
Compression mode : Lossy
Bits/(Pixel*Frame) : 0.293
Stream size : 1.32 GiB (90%)
Writing library : XviD 73
Audio #1
ID : 1
Format : AC-3
Format/Info : Audio Coding 3
Mode extension : CM (complete main)
Codec ID : 2000
Duration : 1h 39mn
Bit rate mode : Constant
Bit rate : 192 Kbps
Channel(s) : 2 channels
Channel positions : Front: L R
Sampling rate : 48.0 KHz
Bit depth : 16 bits
Compression mode : Lossy
Stream size : 137 MiB (9%)
Alignment : Split accross interleaves
Interleave, duration : 42 ms (1.00 video frame)
Interleave, preload duration : 500 ms




реклама партнёра


Вернуться к началу
 Профиль Отправить личное сообщение  
 
   Похожие торренты   Автор   Торрент   Размер 
В этой теме нет новых непрочитанных сообщений. Дядюшка Бак / Uncle Buck [Драма, комедия, семейный, 1989] BDRip 1080p, Dub

salma3

11 | 12

13.2 ГБ

В этой теме нет новых непрочитанных сообщений. Дядюшка Бак / Uncle Buck [Драма, комедия, семейный, 1989] BDRemux 1080p, Dub

salma3

9 | 12

28.95 ГБ

В этой теме нет новых непрочитанных сообщений. Дядюшка Бак / Uncle Buck [Драма, комедия, семейный, 1989] BDRip 720p, Dub

salma3

39 | 12

9.35 ГБ

В этой теме нет новых непрочитанных сообщений. Дядя Джон / Uncle John [Триллер, драма, мелодрама, криминал, детектив, 2015] WEB-DLRip, dvo

Dracon

266 | 7

1.37 ГБ

В этой теме нет новых непрочитанных сообщений. Украсть Гарвард / Мой криминальный дядюшка / Stealing Harvard [Комедия, криминал, 2002] BDRip 720р, Mvo+Sub

salma3

59 | 14

4.49 ГБ

В этой теме нет новых непрочитанных сообщений. Ранчо Халява / Buck Wild [ужасы, комедия, 2013] WEB-DL 720p, mvo

Dracon

168 | 5

3.21 ГБ

В этой теме нет новых непрочитанных сообщений. Ранчо Халява / Buck Wild [ужасы, комедия, 2013] WEB-DLRip, mvo

Dracon

135 | 8

1.46 ГБ


Начать новую тему Ответить на тему  [ 1 сообщение ] 




Для Мосгорсуда, Роскомнадзора и рекламодателей:: mosgorsud-torrent[собачка]yandex.ru