Торрент файл
скачать торрент магнет ссылка Добавлен: 03 ноя 2013, 14:24
Размер: 1.46 ГБ
Сидеров: 83
Личеров: 6
Статус: (salma3)
Автор

СообщениеДобавлено: 03 ноя 2013, 14:24 

В сети
Супермодератор
Аватара пользователя
Дата регистрации:
15 фев 2012, 16:44
Возраст: 28
Спасибо: 6563 / 2129
Сообщения: 43563
Орудие смерти / A-i-deul...

Жанр: триллер, криминал
Год выпуска: 2011
Режиссер: Ли Гю Ман / Kyu-maan Lee

В ролях: Пак Ён У, Рю Сын Рён, Сон Дон Иль, Сон Чжи Ру, Ким Ё Чжин, Пак Пён Ын, Ким Гу Тхэк, Ми-хён Пак, Ли Сан Хи, Ток-чжэ Чжо

Описание: Фильм основан на реальной истории — нераскрытом убийстве, известном в Корее под названием «исчезновение лягушачьих детей». В 1991 году пять учеников начальной школы сказали своим родителям, что собираются наловить лягушек на близлежащей горе. Они никогда не вернулись домой.



Страна: Корея Южная / Noori Pictures
Продолжительность: 02:06:17
Перевод: профессиональный (многоголосый, закадровый)


Файл
Качество: DVDRip
Формат файла: AVI
Видео кодек: XviD
Аудио кодек: AC3
Видео: 720x384 (1.85:1), 25.000 fps, XVID ~1194 kbps avg, 0.173 bit/pixel
Аудио: Русский 48 kHz, AC3, 6 ch, 448.00 kbps Constant

Общее
Полное имя : Orudie.smerti.2011.P.DVDRip.1500MB_[Youtracker]_by_avproh.avi
Формат : AVI
Формат/Информация : Audio Video Interleave
Размер файла : 1,46 Гбайт
Продолжительность : 2 ч. 6 м.
Общий поток : 1651 Кбит/сек
Программа кодирования : VirtualDubMod 1.5.10.3 | http://www.virtualdub-fr.org || (build 2550/release)
Библиотека кодирования : VirtualDubMod build 2550/release

Видео
Идентификатор : 0
Формат : MPEG-4 Visual
Профиль формата : Advanced Simple@L5
Параметр BVOP формата : 1
Параметр QPel формата : Нет
Параметр GMC формата : Без точки перехода
Параметр матрицы формата : Выборочная
Идентификатор кодека : XVID
Идентификатор кодека/Подсказка : XviD
Продолжительность : 2 ч. 6 м.
Битрейт : 1194 Кбит/сек
Ширина : 720 пикселей
Высота : 384 пикселя
Соотношение сторон : 1,85:1
Частота кадров : 25,000 кадров/сек
Цветовое пространство : YUV
Субдискретизация насыщенности : 4:2:0
Битовая глубина : 8 бит
Тип развёртки : Прогрессивная
Метод сжатия : С потерями
Бит/(Пиксели*Кадры) : 0.173
Размер потока : 1,05 Гбайт (72%)
Библиотека кодирования : XviD 73

Аудио
Идентификатор : 1
Формат : AC-3
Формат/Информация : Audio Coding 3
Расширение режима : CM (complete main)
Параметр Endianness формата : Big
Идентификатор кодека : 2000
Продолжительность : 2 ч. 6 м.
Вид битрейта : Постоянный
Битрейт : 448 Кбит/сек
Каналы : 6 каналов
Расположение каналов : Front: L C R, Side: L R, LFE
Частота : 48,0 КГц
Битовая глубина : 16 бит
Метод сжатия : С потерями
Размер потока : 405 Мбайт (27%)
Выравнивание : Разделение по промежуткам
Продолжительность промежутка : 40 мс. (1,00 видеокадр)
Время предзагрузки промежутка : 500 мс.


Раздача от:




реклама партнёра


Вернуться к началу
 Профиль Отправить личное сообщение  
 
   Похожие торренты   Автор   Торрент   Размер 
В этой теме нет новых непрочитанных сообщений. Инсайдеры / Nae-bu-ja-deul (У Мин-хо / Woo Min-ho) [2015г., Южная Корея, триллер, драма, криминал, WEB-DLRip] [Режиссерская версия] DVO

Alfredovich

23 | 7

2.1 ГБ

В этой теме нет новых непрочитанных сообщений. Жажда смерти 5: Лик смерти / Death Wish V: The Face of Death [Боевик, Криминал, Триллер, 1994] BDRip-AVC, mvo

salma3

17 | 4

2.85 ГБ

В этой теме нет новых непрочитанных сообщений. Банши: Музыка смерти / Banshee [триллер, драма, криминал, 2006] DVDRip, Mvo

salma3

44 | 7

1.45 ГБ

В этой теме нет новых непрочитанных сообщений. Искусство умирать / Искусство смерти / The Art of Dying [криминал, триллер, 1991] DVDRip, Avo

salma3

5 | 3

1.45 ГБ

В этой теме нет новых непрочитанных сообщений. Долина смерти / Facade [Комедия, триллер, криминал, 1999] VHSRip, Avo

salma3

2 | 1

1.45 ГБ

В этой теме нет новых непрочитанных сообщений. Шоссе смерти / Highwaymen [боевик, триллер, криминал, 2003] WEB-DL 720p, Dvo

salma3

134 | 65

3.05 ГБ

В этой теме нет новых непрочитанных сообщений. Доказательство смерти / Death Proof [боевик, триллер, криминал, 2007] HDRip-AVC, Dub

salma3

17 | 0

745.92 МБ


Начать новую тему Ответить на тему  [ 1 сообщение ] 




Для Мосгорсуда, Роскомнадзора и рекламодателей:: mosgorsud-torrent[собачка]yandex.ru