Торрент файл
скачать торрент магнет ссылка Добавлен: 03 ноя 2013, 00:54
Размер: 1.46 ГБ
Сидеров: 19
Личеров: 3
Автор

СообщениеДобавлено: 03 ноя 2013, 00:54 

Не в сети
Супермодератор
Аватара пользователя
Дата регистрации:
15 фев 2012, 16:44
Возраст: 28
Спасибо: 6585 / 2145
Сообщения: 44094
Информация о фильме
Название: Смерть со спецэффектами / Чудик
Оригинальное название: Freaky Deaky
Год выхода: 2012
Жанр: триллер, криминал, комедия
Режиссер: Чарльз Мэттоу / Charles Mettou
В ролях: Кристиан Слэйтер, Криспин Гловер, Майкл Джей Уайт, Билли Бурк, Энди Дик, Билл Дьюк, Роджер Барт, Марк Сауль, Глория Хендри, Сабина Гадеки

О фильме:
Бывшему полицейскому подрывнику Бобу Сквэду вновь приходится вспомнить, что сапер ошибается лишь раз. Разбирая дело женщины, обвинившей в изнасиловании некоего богача, он сам попадает в опасный переплет. У подозреваемого еще со времен бурной юности, проведенной в колледже, имеются два закадычных друга. Эти серьезные парни задались целью убить Боба.



Страна: США
Студия: Matthau Company, The, Final Cut Productions
Продолжительность: 01:33:14
Перевод: Любительское (одноголосное) [Артем Белоконский]

Файл
Кодек: XviD
Качество: HDRip (Исх. BDRip 1080p)
Видео: 720x400 (1.80:1), 23.976 fps, XviD build 50 ~1842 kbps avg, 0.27 bit/pixel
Звук: 48 kHz, AC3 Dolby Digital, 3/2 (L,C,R,l,r) + LFE ch, ~384.00 kbps avg
Субтитры: нет

Семпл

Общее
Полное имя : S:ФильмыСмерть со спецэффектами. 2012. HDRip. 1.45 (AleksSin).avi
Формат : AVI
Формат/Информация : Audio Video Interleave
Размер файла : 1,46 Гбайт
Продолжительность : 1 ч. 33 м.
Общий поток : 2235 Кбит/сек
Программа кодирования : VirtualDubMod 1.5.10.3 | http://www.virtualdub-fr.org || (build 2550/release)
Библиотека кодирования : VirtualDubMod build 2550/release

Видео
Идентификатор : 0
Формат : MPEG-4 Visual
Профиль формата : Advanced Simple@L5
Параметр BVOP формата : 2
Параметр QPel формата : Нет
Параметр GMC формата : Без точки перехода
Параметр матрицы формата : Default (H.263)
Идентификатор кодека : XVID
Идентификатор кодека/Подсказка : XviD
Продолжительность : 1 ч. 33 м.
Битрейт : 1842 Кбит/сек
Ширина : 720 пикс.
Высота : 400 пикс.
Соотношение сторон : 16:9
Частота кадров : 23,976 кадр/сек
Цветовое пространство : YUV
Подвыборка цветности : 4:2:0
Битовая глубина : 8 бит
Тип развёртки : Прогрессивная
Метод сжатия : С потерями
Бит/(Пиксели*Кадры) : 0.267
Размер потока : 1,20 Гбайт (82%)
Библиотека кодирования : XviD 1.2.1 (UTC 2008-12-04)

Аудио
Идентификатор : 1
Формат : AC-3
Формат/Информация : Audio Coding 3
Расширение режима : CM (complete main)
Идентификатор кодека : 2000
Продолжительность : 1 ч. 33 м.
Вид битрейта : Постоянный
Битрейт : 384 Кбит/сек
Каналы : 6 каналов
Расположение каналов : Front: L C R, Side: L R, LFE
Частота : 48,0 КГц
Битовая глубина : 16 бит
Метод сжатия : С потерями
Размер потока : 256 Мбайт (17%)
Выравнивание : Разделение по промежуткам
Продолжительность промежутка : 42 мс. (1,00 видеокадр)
Время предзагрузки промежутка : 500 ms



Релиз от:




реклама партнёра


Вернуться к началу
 Профиль Отправить личное сообщение  
 
   Похожие торренты   Автор   Торрент   Размер 
В этой теме нет новых непрочитанных сообщений. Ордер на смерть / Death Warrant [боевик, триллер, криминал, 1990] HDRip-AVC, Mvo [НТВ+]

salma3

66 | 13

746.21 МБ

В этой теме нет новых непрочитанных сообщений. Чудик какой-то? / Some Kind of a Nut [комедия, 1969] SATRip, Dvo

salma3

55 | 37

1.38 ГБ

В этой теме нет новых непрочитанных сообщений. Смерть в Брунсвике / Death in Brunswick [триллер, комедия, криминал, 1990] DVDRip, Mvo [Рен ТВ]

salma3

28 | 2

1.37 ГБ

В этой теме нет новых непрочитанных сообщений. Смерть на похоронах / Death at a Funeral [Комедия, 2010] HDRip, Mvo

salma3

8 | 1

744.58 МБ

В этой теме нет новых непрочитанных сообщений. Ледяная смерть / Stone Cold Dead [Триллер, криминал, 1979] HDTVRip, Dvo

salma3

22 | 2

1.46 ГБ

В этой теме нет новых непрочитанных сообщений. Внезапная смерть / Sudden Death [боевик, триллер, драма, 1995] HDRip-AVC, Mvo

salma3

64 | 21

745.67 МБ

В этой теме нет новых непрочитанных сообщений. Смерть свадебного свидетеля / Best Man Down (Тед Коланд) [Драма, комедия, 2013] HDRip, Mvo

Dracon

486 | 11

1.36 ГБ


Начать новую тему Ответить на тему  [ 1 сообщение ] 




Для Мосгорсуда, Роскомнадзора и рекламодателей:: mosgorsud-torrent[собачка]yandex.ru