Торрент файл
скачать торрент магнет ссылка Добавлен: 01 ноя 2013, 21:47
Размер: 1.46 ГБ
Сидеров: 24
Личеров: 2
Статус: (salma3)
Автор

СообщениеДобавлено: 01 ноя 2013, 21:47 

Не в сети
Супермодератор
Аватара пользователя
Дата регистрации:
15 фев 2012, 16:44
Возраст: 27
Спасибо: 5373 / 2095
Сообщения: 19250
Идеальное убийство / A Perfect Murder

Год выпуска: 1998
Жанр: триллер, драма, криминал
Режиссер: Эндрю Дэвис

В ролях: Гвинет Пэлтроу, Майкл Дуглас, Вигго Мортенсен, Сарита Чоудхури, Майкл П. Моран, Новелла Нельсон, Констанс Тауэрс, Уилл Лиман, Маив МакГуайр

Описание:
Преуспевающий бизнесмен Стивен Тэйлор, испытывающий серьезные трудности на работе, грозящие ему разорением, узнает, что жена Эмили, женщина очень богатая, изменяет ему с художником Дэвидом.

Наведя справки, он узнает, что Дэвид вовсе не художник, а брачный аферист с солидным «послужным» списком и рядом отсидок в тюрьме. Встретившись с Дэвидом, Стивен предлагает ему 500 тысяч долларов за убийство собственной жены…



Страна: США
Продолжительность: 01:47:26
Перевод: Профессиональный (полное дублирование)
субтитры : русские, английские

Файл
Качество: BDRip-AVC
Формат файла: MKV
Видео кодек: H.264
Аудио кодек: AC3
Видео: 960x540 (16:9), 23.976 fps, AVC (H.264), High@L4.1 ~1555 kbps, 0.125 bit/pixel
Аудио #1: Русский: 48 kHz, AC3 Dolby Digital, 2/0 (L,R) ch, ~192 kbps [Профессиональный]
Аудио #2: Английский: 48 kHz, AC3 Dolby Digital, 2/0 (L,R) ch, ~192 kbps [Оригинал]

Общее
Уникальный идентификатор : 191699791523581878187511305004930959913 (0x9038097126CC2910AFE76AD452960A29)
Полное имя : E:\Idealnoe.Ubiystvo.1998.BDRip.AVC.mkv
Формат : Matroska
Размер файла : 1,46 Гбайт
Продолжительность : 1 ч. 47 м.
Общий поток : 1943 Кбит/сек
Дата кодирования : UTC 2013-02-16 15:16:03
Программа кодирования : mkvmerge v5.8.0 ('No Sleep / Pillow') built on Sep 2 2012 15:37:04
Библиотека кодирования : libebml v1.2.3 + libmatroska v1.3.0

Видео
Идентификатор : 1
Формат : AVC
Формат/Информация : Advanced Video Codec
Профиль формата : High@L4.1
Параметр CABAC формата : Да
Параметр ReFrames формата : 10 кадров
Идентификатор кодека : V_MPEG4/ISO/AVC
Продолжительность : 1 ч. 47 м.
Вид битрейта : Переменный
Битрейт : 1555 Кбит/сек
Максимальный битрейт : 40,0 Мбит/сек
Ширина : 960 пикс.
Высота : 540 пикс.
Соотношение сторон : 16:9
Частота кадров : 23,976 кадр/сек
Цветовое пространство : YUV
Подвыборка цветности : 4:2:0
Битовая глубина : 8 бит
Тип развёртки : Прогрессивная
Бит/(Пиксели*Кадры) : 0.125
Размер потока : 1,14 Гбайт (78%)
Библиотека кодирования : x264 core 129 r2245 bc13772
Настройки программы : cabac=1 / ref=10 / deblock=1:-3:-2 / analyse=0x3:0x113 / me=umh / subme=11 / psy=1 / psy_rd=0.85:0.00 / mixed_ref=1 / me_range=48 / chroma_me=1 / trellis=2 / 8x8dct=1 / cqm=0 / deadzone=21,11 / fast_pskip=0 / chroma_qp_offset=-2 / threads=6 / lookahead_threads=1 / sliced_threads=0 / nr=0 / decimate=1 / interlaced=0 / bluray_compat=0 / constrained_intra=0 / bframes=10 / b_pyramid=2 / b_adapt=2 / b_bias=0 / direct=3 / weightb=1 / open_gop=0 / weightp=2 / keyint=240 / keyint_min=24 / scenecut=40 / intra_refresh=0 / rc=2pass / mbtree=0 / bitrate=1555 / ratetol=1.0 / qcomp=0.70 / qpmin=0 / qpmax=69 / qpstep=4 / cplxblur=20.0 / qblur=0.5 / ip_ratio=1.30 / pb_ratio=1.20 / aq=2:0.9

Аудио #1
Идентификатор : 2
Формат : AC-3
Формат/Информация : Audio Coding 3
Расширение режима : CM (complete main)
Идентификатор кодека : A_AC3
Продолжительность : 1 ч. 47 м.
Вид битрейта : Постоянный
Битрейт : 192 Кбит/сек
Каналы : 2 канала
Расположение каналов : Front: L R
Частота : 48,0 КГц
Битовая глубина : 16 бит
Метод сжатия : С потерями
Размер потока : 148 Мбайт (10%)
Заголовок : Dub
Язык : Russian

Аудио #2
Идентификатор : 3
Формат : AC-3
Формат/Информация : Audio Coding 3
Расширение режима : CM (complete main)
Идентификатор кодека : A_AC3
Продолжительность : 1 ч. 47 м.
Вид битрейта : Постоянный
Битрейт : 192 Кбит/сек
Каналы : 2 канала
Расположение каналов : Front: L R
Частота : 48,0 КГц
Битовая глубина : 16 бит
Метод сжатия : С потерями
Размер потока : 148 Мбайт (10%)
Заголовок : Original
Язык : English

Текст #1
Идентификатор : 4
Формат : UTF-8
Идентификатор кодека : S_TEXT/UTF8
Идентификатор кодека/Информация : UTF-8 Plain Text
Заголовок : Full
Язык : Russian

Текст #2
Идентификатор : 5
Формат : UTF-8
Идентификатор кодека : S_TEXT/UTF8
Идентификатор кодека/Информация : UTF-8 Plain Text
Заголовок : Full
Язык : English

Меню
00:00:00.000 : en:00:00:00.000
00:02:14.009 : en:00:02:14.009
00:08:09.864 : en:00:08:09.864
00:10:53.820 : en:00:10:53.820
00:13:18.339 : en:00:13:18.339
00:19:59.657 : en:00:19:59.657
00:22:32.226 : en:00:22:32.226
00:27:28.897 : en:00:27:28.897
00:32:49.676 : en:00:32:49.676
00:37:12.480 : en:00:37:12.480
00:39:03.007 : en:00:39:03.007
00:41:31.823 : en:00:41:31.823
00:45:06.078 : en:00:45:06.078
00:48:25.903 : en:00:48:25.903
00:51:29.086 : en:00:51:29.086
00:55:51.139 : en:00:55:51.139
00:58:50.944 : en:00:58:50.944
01:03:31.266 : en:01:03:31.266
01:06:28.818 : en:01:06:28.818
01:09:44.389 : en:01:09:44.389
01:10:55.501 : en:01:10:55.501
01:14:41.227 : en:01:14:41.227
01:18:36.503 : en:01:18:36.503
01:22:09.424 : en:01:22:09.424
01:28:31.473 : en:01:28:31.473
01:31:09.339 : en:01:31:09.339
01:35:01.696 : en:01:35:01.696
01:38:56.097 : en:01:38:56.097
01:40:49.043 : en:01:40:49.043
01:42:20.301 : en:01:42:20.301
01:43:22.696 : en:01:43:22.696
01:44:29.013 : en:01:44:29.013




реклама партнёра


Вернуться к началу
 Профиль Отправить личное сообщение  
 
   Похожие торренты   Автор   Торрент   Размер 
В этой теме нет новых непрочитанных сообщений. Самое жуткое убийство / Murder Most Foul [триллер, драма, комедия, криминал, детектив, 1964] DVDRip, Avo

salma3

21 | 3

1.47 ГБ

В этой теме нет новых непрочитанных сообщений. Убийство первой степени / Murder in the First / 1 сезон 1-10 серии из 10 [триллер, детектив, драма, криминал, 2014] WEB-DLRip, Dvo [HamsterStudio]

salma3

100 | 21

4.4 ГБ

В этой теме нет новых непрочитанных сообщений. Как избежать наказания за убийство / How to Get Away with Murder [02х01-06 из 15] (Билл Д’Элиа, Майкл Оффер) [2015, триллер, драма, криминал, детектив, WEB-DLRip | Flux-Team]

Nickolas3435

79 | 54

3.4 ГБ

В этой теме нет новых непрочитанных сообщений. Как избежать наказания за убийство / How to Get Away with Murder [02х01-14 из 15] (Билл Д’Элиа, Майкл Оффер) [2015, триллер, драма, криминал, детектив, WEB-DLRip | Flux-Team]

Dracon

0 | 0

7.93 ГБ

В этой теме нет новых непрочитанных сообщений. Как избежать наказания за убийство / How to Get Away with Murder [02х01-08 из 15] (Билл Д’Элиа, Майкл Оффер) [2015, триллер, драма, криминал, детектив, WEB-DLRip | Flux-Team]

Dracon

73 | 56

4.53 ГБ

В этой теме нет новых непрочитанных сообщений. Как избежать наказания за убийство / How to Get Away with Murder [02х01-07 из 15] (Билл Д’Элиа, Майкл Оффер) [2015, триллер, драма, криминал, детектив, WEB-DLRip | Flux-Team]

Dracon

47 | 52

3.96 ГБ

В этой теме нет новых непрочитанных сообщений. Убийство в маленьком городке / Murder in a Small Town [триллер, криминал, детектив, 1999] DVDRip, Avo

salma3

6 | 2

1.37 ГБ


Начать новую тему Ответить на тему  [ 1 сообщение ] 




Для Мосгорсуда, Роскомнадзора и рекламодателей:: mosgorsud-torrent[собачка]yandex.ru