Торрент файл
скачать торрент магнет ссылка Добавлен: 28 окт 2013, 21:40
Размер: 2.95 ГБ
Сидеров: 28
Личеров: 7
Статус: (salma3)
Автор

СообщениеДобавлено: 28 окт 2013, 21:40 

Не в сети
Супермодератор
Аватара пользователя
Дата регистрации:
15 фев 2012, 16:44
Возраст: 27
Спасибо: 5130 / 2089
Сообщения: 17371
Информация о фильме
Название: Беглец
Оригинальное название: Running Man
Год выхода: 2013
Жанр: боевик, триллер, комедия
Режиссер: Чо Дон О
В ролях: Чо Ын Джи, Ким Сан Хо, Ли Мин Хо, Син Ха Гюн

О фильме:
Ча Чжон-У обычный автомеханик. У него есть семнадцатилетний сын по имени Ки-Хёк, всего лишь на семнадцать лет моложе своего папочки, в связи с чем у этой парочки довольно таки напряженные отношения. Чжон-У мечтает купить дом для себя и своего сына, подрабатывая для этого по ночам таксистом. Но он не простой таксист, Чжон-У высококлассный водитель, любящий скорость, и за более высокую оплату, чем в обычном такси, он быстро домчит вас в любую часть города. Проблема начинается тогда, когда в один прекрасный день его клиент оказывается мертвым. По закону жанра, наш водитель становится главным подозреваемым и вынужден стать беглецом. Его, как зайца, гоняют по всему городу, а он пытается расследовать это дело и очистить свое имя, ведь только так он сможет спасти свои отношения с сыном. А парнишка тем временем не сидит на месте, озадаченный тем, что его отца подозревают в убийстве, он сам пытается разобраться во всем и раскрыть правду.



Выпущено: Корея Южная
Продолжительность: 02:07:25
Озвучивание: Любительское (многоголосое) [DeadSno & den904]

Файл
Формат: MKV
Качество: HDTV 720p [Unknown]
Видео: 3000 kb/s, 1280х720
Аудио: Russian / Korean: AC3, 192 kb/s (2 ch)
Субтитры: Russian [forced], English
Размер: 2.95 GB
Скачать: Сэмпл

Релиз группы:

General
Running.Man.2013.HDTV.720p.CINEMANIA.mkv
Format : Matroska
Format version : Version 4 / Version 2
File size : 2.95 GiB
Duration : 2h 7mn
Overall bit rate : 3 314 Kbps
Movie name : CINEMANIA.CC
Encoded date : UTC 2013-10-24 11:05:22
Writing application : mkvmerge v6.5.0 ('Isn't she lovely') built on Oct 20 2013 12:50:05
Writing library : libebml v1.3.0 + libmatroska v1.4.1

Video
ID : 1
Format : AVC
Format/Info : Advanced Video Codec
Format profile : Baseline@L3.1
Format settings, CABAC : No
Format settings, ReFrames : 3 frames
Format settings, GOP : M=1, N=29
Codec ID : V_MPEG4/ISO/AVC
Duration : 2h 7mn
Bit rate mode : Constant
Nominal bit rate : 3 000 Kbps
Width : 1 280 pixels
Height : 720 pixels
Display aspect ratio : 16:9
Frame rate mode : Constant
Frame rate : 29.970 fps
Color space : YUV
Chroma subsampling : 4:2:0
Bit depth : 8 bits
Scan type : Progressive
Bits/(Pixel*Frame) : 0.109
Title : CINEMANIA.CC
Default : Yes
Forced : No

Audio #1
ID : 2
Format : AC-3
Format/Info : Audio Coding 3
Mode extension : CM (complete main)
Format settings, Endianness : Big
Codec ID : A_AC3
Duration : 2h 7mn
Bit rate mode : Constant
Bit rate : 192 Kbps
Channel(s) : 2 channels
Channel positions : Front: L R
Sampling rate : 48.0 KHz
Bit depth : 16 bits
Compression mode : Lossy
Delay relative to video : -1ms
Stream size : 175 MiB (6%)
Title : DeadSno & den904
Language : Russian
Default : Yes
Forced : Yes

Audio #2
Format : AC-3
Format/Info : Audio Coding 3
Mode extension : CM (complete main)
Format settings, Endianness : Big
Codec ID : A_AC3
Duration : 2h 7mn
Bit rate mode : Constant
Bit rate : 192 Kbps
Channel(s) : 2 channels
Channel positions : Front: L R
Sampling rate : 48.0 KHz
Bit depth : 16 bits
Compression mode : Lossy
Delay relative to video : -1ms
Stream size : 175 MiB (6%)
Language : Korean
Default : No
Forced : No

Text #1
ID : 4
Format : UTF-8
Codec ID : S_TEXT/UTF8
Codec ID/Info : UTF-8 Plain Text
Title : forced
Language : Russian
Default : Yes
Forced : Yes

Text #2
ID : 5
Format : UTF-8
Codec ID : S_TEXT/UTF8
Codec ID/Info : UTF-8 Plain Text
Language : English
Default : No
Forced : No




реклама партнёра


Вернуться к началу
 Профиль Отправить личное сообщение  
 
   Похожие торренты   Автор   Торрент   Размер 
В этой теме нет новых непрочитанных сообщений. Полицейская история 2014 / Jing Cha Gu Shi 2013 [боевик, триллер, драма, криминал, 2013] HDTV 720p, Dvo+Sub

salma3

196 | 6

1.95 ГБ

В этой теме нет новых непрочитанных сообщений. Ночной беглец / Run All Night (Хауме Кольет-Серра) [боевик, триллер, драма, криминал, детектив, 2015] WEB-DL 720p, Dub+Sub [iTunes Russia]

Dracon

1 | 0

3.57 ГБ

В этой теме нет новых непрочитанных сообщений. Ночной беглец / Run All Night (Хауме Кольет-Серра) [боевик, триллер, драма, криминал, детектив, 2015] BDRip 720p, Dub [iTunes]

Dracon

1100 | 84

4.37 ГБ

В этой теме нет новых непрочитанных сообщений. Ночной беглец / Run All Night (Хауме Кольет-Серра) [боевик, триллер, драма, криминал, детектив, 2015] BDRip 720p, Dub+Avo+Sub [Лицензия]

Dracon

1 | 0

10.12 ГБ

В этой теме нет новых непрочитанных сообщений. Шпион: Операция под прикрытием / Seu-pa-i / The Spy: Undercover Operation [боевик, комедия, 2013] HDTV 720p, Avo

salma3

41 | 6

3.71 ГБ

В этой теме нет новых непрочитанных сообщений. Беги без оглядки / Running Scared [Боевик, Комедия, Триллер, Криминал, 1986] HDTVRip-AVC, Avo+Dvo

salma3

31 | 0

2.31 ГБ

В этой теме нет новых непрочитанных сообщений. Ночной беглец / Run All Night (Хауме Кольет-Серра) [боевик, триллер, драма, криминал, детектив, 2015] WEB-DLRip 720p, dub [Чистый звук]

Dracon

45 | 0

3.75 ГБ


Начать новую тему Ответить на тему  [ 1 сообщение ] 




Для Мосгорсуда, Роскомнадзора и рекламодателей:: mosgorsud-torrent[собачка]yandex.ru