Торрент файл
скачать торрент магнет ссылка Добавлен: 27 окт 2013, 14:03
Размер: 1.46 ГБ
Сидеров: 56
Личеров: 14
Статус: (salma3)
Автор

СообщениеДобавлено: 27 окт 2013, 14:03 

В сети
Супермодератор
Аватара пользователя
Дата регистрации:
15 фев 2012, 16:44
Возраст: 27
Спасибо: 5136 / 2089
Сообщения: 17410
Невозмутимый / Stone Cold

Год выхода: 1991
Жанр: Боевик, драма, криминал
Режиссер: Крэйг Р. Бэксли

В ролях: Брайан Босворт, Лэнс Хенриксен, Иллэна Дайамант, Уильям Форсайт, Арабелла Хольцбог, Сэм МакМюррей, Ричард Гант, Дэвид Тресс, Ивэн Джеймс, Тони Пирс, Билли Милион, Роберт Уинли

О фильме:
Джо Хафф — полицейский, который внедряется в банду рокеров, терроризирующую городок в штате Миссисипи, подминая под себя не только рядовых его жителей и подпольных бизнесменов, но и местные органы власти, включая представителей правосудия. Внешность и манеры поведения Джо позволяют ему выдать себя среди рокеров за своего и под именем Джо Стоуна начать разработку операции по захвату всей моторизованной и до зубов вооруженной банды, которой руководит безжалостный Чейнз.



Страна: США
Продолжительность: 01:28:13
Перевод: Профессиональный (двухголосый, закадровый) (НТВ+)

Файл
Качество: HDTVRip
Формат файла: AVI
Видео кодек: XviD
Аудио кодек: AC3
Видео: 720x384, 25,000 fps, 2161 kbps
Звук: AC3, 2 ch, 192 Kbps, 48,0 khz


Общее
Полное имя : Stone.Cold.1991.HDTVRip.avi
Формат : AVI
Формат/Информация : Audio Video Interleave
Размер файла : 1,46 Гбайт
Продолжительность : 1 ч. 28 м.
Общий поток : 2363 Кбит/сек
Программа кодирования : VirtualDubMod 1.5.10.3 | http://www.virtualdub-fr.org || (build 2550/release)
Библиотека кодирования : VirtualDubMod build 2550/release

Видео
Идентификатор : 0
Формат : MPEG-4 Visual
Профиль формата : Advanced Simple@L5
Параметр BVOP формата : 1
Параметр QPel формата : Нет
Параметр GMC формата : Без точки перехода
Параметр матрицы формата : Выборочная
Идентификатор кодека : XVID
Идентификатор кодека/Подсказка : XviD
Продолжительность : 1 ч. 28 м.
Битрейт : 2161 Кбит/сек
Ширина : 720 пикс.
Высота : 384 пикс.
Соотношение сторон : 1,875
Частота кадров : 25,000 кадр/сек
Цветовое пространство : YUV
Подвыборка цветности : 4:2:0
Битовая глубина : 8 бит
Тип развёртки : Прогрессивная
Метод сжатия : С потерями
Бит/(Пиксели*Кадры) : 0.313
Размер потока : 1,33 Гбайт (91%)
Библиотека кодирования : XviD 73

Аудио
Идентификатор : 1
Формат : AC-3
Формат/Информация : Audio Coding 3
Расширение режима : CM (complete main)
Идентификатор кодека : 2000
Продолжительность : 1 ч. 28 м.
Вид битрейта : Постоянный
Битрейт : 192 Кбит/сек
Канал(ы) : 2 канала(ов)
Расположение каналов : Front: L R
Частота : 48,0 КГц
Битовая глубина : 16 бит
Метод сжатия : С потерями
Размер потока : 121 Мбайт (8%)
Выравнивание : Разделение по промежуткам
Продолжительность промежутка : 40 мс. (1,00 видеокадр)
Время предзагрузки промежутка : 500 ms


Релиз от: Leon-masl




реклама партнёра


Вернуться к началу
 Профиль Отправить личное сообщение  
 
   Похожие торренты   Автор   Торрент   Размер 
В этой теме нет новых непрочитанных сообщений. Невозмутимый / Холодный как камень / Без эмоций / Stone Cold [Боевик, драма, криминал, 1991] BDRip 1080p, Dvo+Avo+Sub

salma3

13 | 4

7.44 ГБ

В этой теме нет новых непрочитанных сообщений. Невозмутимый / Холодный как камень / Без эмоций / Stone Cold [Боевик, драма, криминал, 1991] BDRip 720p, Dvo+Avo+Sub

salma3

13 | 3

4.27 ГБ

В этой теме нет новых непрочитанных сообщений. Невозмутимый / Stone Cold [Боевик, 1991] BDRip, Avo [Сербин]

salma3

61 | 7

1.46 ГБ

В этой теме нет новых непрочитанных сообщений. Холодные небеса / Cold Heaven [драма, мелодрама, триллер, 1991] HDTVRip, Avo

salma3

87 | 5

1.46 ГБ

В этой теме нет новых непрочитанных сообщений. Поспешное бегство / Fast Getaway [боевик, комедия, криминал, 1991] HDTVRip, Mvo

salma3

13 | 2

1.46 ГБ

В этой теме нет новых непрочитанных сообщений. Дневник наемного убийцы / Diary of a Hitman [триллер, драма, криминал, 1991] HDTVRip, Dvo [НТВ+]

salma3

22 | 3

1.47 ГБ

В этой теме нет новых непрочитанных сообщений. Во имя справедливости / Out for Justice [боевик, криминал, драма, 1991] HDRip, Dub

salma3

42 | 8

1.45 ГБ


Начать новую тему Ответить на тему  [ 1 сообщение ] 




Для Мосгорсуда, Роскомнадзора и рекламодателей:: mosgorsud-torrent[собачка]yandex.ru