Торрент файл
скачать торрент магнет ссылка Добавлен: 26 окт 2013, 17:46
Размер: 1.99 ГБ
Сидеров: 27
Личеров: 7
Статус: (salma3)
Автор

СообщениеДобавлено: 26 окт 2013, 17:46 

Не в сети
Зам. Админа
Аватара пользователя
Дата регистрации:
02 дек 2010, 12:39
Спасибо: 12461 / 214
Сообщения: 27968
Год выпуска: 2013
Жанр: Триллер, ужасы
Режиссер: Олатунде Осунсанми
В ролях: Рада Митчелл, Стивен Мойер, Торри ДеВито, Нолан Фанк, Дейл Дикки, Гарри Дж. Ленникс, Кэйтлин Стэйси, Амл Амин, Джон Хеймс Ньютон, Светлана Меткина

Описание: В автобусе, направлявшемся в Лас-Вегас, совершено жестокое убийство. На месте преступления — ни одного уцелевшего. Только несколько трупов и хаотичный набор мобильных телефонов, карманных видеокамер и других устройств, оставшихся от потерпевших. Детектив, которому поручено расследование, с помощью сохранившихся записей пытается восстановить цепь загадочных событий, приведших к трагедии.



Страна: США
Студия: Bold Films, Marc Platt Productions
Продолжительность: 01:33:57
Перевод: Дублированный (Лицензия)

Качество: BDRip (AVC)
Видео: MPEG-4 AVC, 2200 Кбит/с, 1024x426, 23.976 кадр/с
Аудио #1: Русский (AC3, 6 ch, 384 Кбит/с) / Дублированный
Аудио #2: Английский (AC3, 6 ch, 448 Кбит/с)
Субтитры: Русские, английские

Семпл



Общее
Уникальный идентификатор : 249089490194998337391900467483084804099 (0xBB64E40B75D41B0C8CFDBC385D6B5003)
Полное имя : D:Mои раздачиUliki.2013.BDRip.(AVC)-MediaClub.mkv
Формат : Matroska
Версия формата : Version 4 / Version 2
Размер файла : 1,99 Гбайт
Продолжительность : 1 ч. 33 м.
Общий поток : 3033 Кбит/сек
Название фильма : -=MediaClub-kaspr=-
Дата кодирования : UTC 2013-10-26 11:47:57
Программа кодирования : mkvmerge v6.1.0 ('Old Devil') built on Mar 4 2013 09:10:42
Библиотека кодирования : libebml v1.3.0 + libmatroska v1.4.0

Видео
Идентификатор : 1
Формат : AVC
Формат/Информация : Advanced Video Codec
Профиль формата : High@L4.1
Параметр CABAC формата : Да
Параметр ReFrames формата : 9 кадров
Идентификатор кодека : V_MPEG4/ISO/AVC
Продолжительность : 1 ч. 33 м.
Битрейт : 2200 Кбит/сек
Ширина : 1024 пикселя
Высота : 426 пикселей
Соотношение сторон : 2,40:1
Режим частоты кадров : Постоянный
Частота кадров : 23,976 кадра/сек
Цветовое пространство : YUV
Субдискретизация насыщенности : 4:2:0
Битовая глубина : 8 бит
Тип развёртки : Прогрессивная
Бит/(Пиксели*Кадры) : 0.210
Размер потока : 1,40 Гбайт (71%)
Заголовок : -=MediaClub-kaspr=-
Библиотека кодирования : x264 core 130 r2273 b3065e6
Настройки программы : cabac=1 / ref=9 / deblock=1:-3:-3 / analyse=0x3:0x133 / me=umh / subme=11 / psy=1 / psy_rd=1.00:0.20 / mixed_ref=1 / me_range=48 / chroma_me=1 / trellis=2 / 8x8dct=1 / cqm=0 / deadzone=21,11 / fast_pskip=0 / chroma_qp_offset=-3 / threads=12 / lookahead_threads=3 / sliced_threads=0 / nr=0 / decimate=0 / interlaced=0 / bluray_compat=0 / constrained_intra=0 / bframes=10 / b_pyramid=2 / b_adapt=2 / b_bias=0 / direct=3 / weightb=1 / open_gop=0 / weightp=2 / keyint=240 / keyint_min=23 / scenecut=40 / intra_refresh=0 / rc=2pass / mbtree=0 / bitrate=2200 / ratetol=1.0 / qcomp=0.60 / qpmin=0 / qpmax=69 / qpstep=4 / cplxblur=20.0 / qblur=0.5 / ip_ratio=1.40 / pb_ratio=1.30 / aq=1:1.00
Default : Да
Forced : Да

Аудио #1
Идентификатор : 2
Формат : AC-3
Формат/Информация : Audio Coding 3
Расширение режима : CM (complete main)
Параметр Endianness формата : Big
Идентификатор кодека : A_AC3
Продолжительность : 1 ч. 33 м.
Вид битрейта : Постоянный
Битрейт : 384 Кбит/сек
Каналы : 6 каналов
Расположение каналов : Front: L C R, Side: L R, LFE
Частота : 48,0 КГц
Битовая глубина : 16 бит
Метод сжатия : С потерями
Размер потока : 258 Мбайт (13%)
Заголовок : Dub
Язык : Russian
Default : Да
Forced : Да

Аудио #2
Идентификатор : 3
Формат : AC-3
Формат/Информация : Audio Coding 3
Расширение режима : CM (complete main)
Параметр Endianness формата : Big
Идентификатор кодека : A_AC3
Продолжительность : 1 ч. 33 м.
Вид битрейта : Постоянный
Битрейт : 448 Кбит/сек
Каналы : 6 каналов
Расположение каналов : Front: L C R, Side: L R, LFE
Частота : 48,0 КГц
Битовая глубина : 16 бит
Метод сжатия : С потерями
Размер потока : 301 Мбайт (15%)
Язык : English
Default : Нет
Forced : Нет

Текст #1
Идентификатор : 4
Формат : UTF-8
Идентификатор кодека : S_TEXT/UTF8
Идентификатор кодека/Информация : UTF-8 Plain Text
Язык : Russian
Default : Нет
Forced : Нет

Текст #2
Идентификатор : 5
Формат : UTF-8
Идентификатор кодека : S_TEXT/UTF8
Идентификатор кодека/Информация : UTF-8 Plain Text
Язык : English
Default : Нет
Forced : Нет

Меню
00:00:00.000 : en:Chapter 01
00:07:52.471 : en:Chapter 02
00:14:26.365 : en:Chapter 03
00:23:23.402 : en:Chapter 04
00:31:06.864 : en:Chapter 05
00:40:30.970 : en:Chapter 06
00:47:58.792 : en:Chapter 07
00:54:38.858 : en:Chapter 08
01:01:29.268 : en:Chapter 09
01:07:55.738 : en:Chapter 10
01:19:25.218 : en:Chapter 11
01:28:39.314 : en:Chapter 12

Релиз:




реклама партнёра


Вернуться к началу
 Профиль  
 
   Похожие торренты   Автор   Торрент   Размер 
В этой теме нет новых непрочитанных сообщений. Свидетельство / Evidence [ужасы, триллер, 2011] BDRip-AVC, Mvo

salma3

143 | 9

1.36 ГБ

В этой теме нет новых непрочитанных сообщений. Окулус / Oculus [ужасы, триллер, 2013] BDRip-AVC, Dub [лицензия]

salma3

52 | 5

2.14 ГБ

В этой теме нет новых непрочитанных сообщений. Владение 18 [ужасы, детектив, триллер, 2013] BDRip 1080p [лицензия]

Dracon

67 | 6

7.01 ГБ

В этой теме нет новых непрочитанных сообщений. Свидетельство / Evidence [ужасы, триллер, 2011] BDRemux, 2Mvo+Avo+Sub

salma3

0 | 3

19.99 ГБ

В этой теме нет новых непрочитанных сообщений. Астрал: Глава 2 / Insidious: Chapter 2 [мистика, ужасы, триллер, 2013] BDRip-AVC, Dub+Sub [лицензия]

salma3

170 | 3

1.46 ГБ

В этой теме нет новых непрочитанных сообщений. Рога / Horns (Александр Ажа) [ужасы, фэнтези, триллер, драма, 2013] BDRip-AVC, Mvo+Sub [Лицензия]

Dracon

1801 | 68

2.18 ГБ

В этой теме нет новых непрочитанных сообщений. Рога / Horns (Александр Ажа) [2013, ужасы, фэнтези, триллер, драма, BDRip 1080p] Mvo [Лицензия]

Nickolas3435

48 | 3

12.29 ГБ


Начать новую тему Ответить на тему  [ 1 сообщение ] 




Для Мосгорсуда, Роскомнадзора и рекламодателей:: mosgorsud-torrent[собачка]yandex.ru