Торрент файл
скачать торрент магнет ссылка Добавлен: 25 окт 2013, 15:40
Размер: 1.46 ГБ
Сидеров: 43
Личеров: 7
Статус: (salma3)
Автор

СообщениеДобавлено: 25 окт 2013, 15:40 

Не в сети
Зам. Админа
Аватара пользователя
Дата регистрации:
02 дек 2010, 12:39
Спасибо: 12461 / 214
Сообщения: 27968
Год выхода: 2013
Жанр: Триллер, Криминал, Детектив
Режиссер: Пер Ханефьорд
В ролях: Клаудия Галли, Рихард Ульфсетер, Эва Фритьофсон, Памела Кортес Бруна, Леннарт Йенкель, Амалия Хольм Бьельке, Фэнни Клефельт, Эдвин Эндре, Аксель Мюрберг, Ким Сольфельдт

О фильме:
Экранизация книги Камиллы Лекберг. Живописный рыбацкий городок Фьелльбакка на побережье Атлантики выглядит как ожившая туристическая открытка. Именно сюда возвращается автор детективов Эрика, мечтая предаться счастливой семейной жизни и творчеству. Но тихая провинциальная жизнь таит немало секретов. И однажды вековой покой Фьелльбакки взрывается новостью о жестоком убийстве…


Страна: Швеция
Студия: Tre Vänner Produktion AB
Продолжительность: 01:45:03
Перевод: Любительский (двуголосый закадровый)
Озвучка / Автор перевода: Максим Максимов, "С Причудами"

Кодек: AVI
Качество: HDRip
Видео: 720x304, ~1528 Kbit/s, 24 fps
Звук: AC3 5.1~448 Kbit/s
Субтитры: Отсутствуют

Семпл

Общее
Полное имя : D:ТоррентыТайное дитя.2013.HDRip.avi
Формат : AVI
Формат/Информация : Audio Video Interleave
Размер файла : 1,46 Гбайт
Продолжительность : 1 ч. 45 м.
Общий поток : 1986 Кбит/сек
Программа кодирования : VirtualDubMod 1.5.10.2 (build 2542/release)
Библиотека кодирования : VirtualDubMod build 2542/release

Видео
Идентификатор : 0
Формат : MPEG-4 Visual
Профиль формата : Advanced Simple@L5
Параметр BVOP формата : 1
Параметр QPel формата : Нет
Параметр GMC формата : Без точки перехода
Параметр матрицы формата : Default (H.263)
Идентификатор кодека : XVID
Идентификатор кодека/Подсказка : XviD
Продолжительность : 1 ч. 45 м.
Битрейт : 1528 Кбит/сек
Ширина : 720 пикс.
Высота : 304 пикс.
Соотношение сторон : 2,35:1
Частота кадров : 24,000 кадр/сек
Цветовое пространство : YUV
Подвыборка цветности : 4:2:0
Битовая глубина : 8 бит
Тип развёртки : Прогрессивная
Метод сжатия : С потерями
Бит/(Пиксели*Кадры) : 0.291
Размер потока : 1,12 Гбайт (77%)
Библиотека кодирования : XviD 1.2.1 (UTC 2008-12-04)

Аудио
Идентификатор : 1
Формат : AC-3
Формат/Информация : Audio Coding 3
Расширение режима : CM (complete main)
Идентификатор кодека : 2000
Продолжительность : 1 ч. 45 м.
Вид битрейта : Постоянный
Битрейт : 448 Кбит/сек
Каналы : 6 каналов
Расположение каналов : Front: L C R, Side: L R, LFE
Частота : 48,0 КГц
Битовая глубина : 16 бит
Метод сжатия : С потерями
Размер потока : 337 Мбайт (23%)
Выравнивание : Разделение по промежуткам
Продолжительность промежутка : 42 мс. (1,00 видеокадр)
Время предзагрузки промежутка : 500 ms






реклама партнёра


Вернуться к началу
 Профиль  
 
   Похожие торренты   Автор   Торрент   Размер 
В этой теме нет новых непрочитанных сообщений. Убийства во Фьелльбакке 1: Тайное дитя / Fjällbackamorden: Tyskungen (Пер Ханефьорд / Per Hanefjord) [2013г., триллер, детектив, криминал, HDRip] DVO + VO + sub

Alfredovich

11 | 2

1.41 ГБ

В этой теме нет новых непрочитанных сообщений. Тайное дитя / Убийство у моря / Tyskungen (Пер Ханефьорд / Per Hanefjord) [2013г., триллер, криминал, детекив, экранизация, BDRip 720p] MVO

Alfredovich

282 | 9

3.72 ГБ

В этой теме нет новых непрочитанных сообщений. Дитя тьмы / Orphan [ужасы, триллер, драма, детектив, 2009] HDRip, Dub

salma3

0 | 2

1.46 ГБ

В этой теме нет новых непрочитанных сообщений. Дитя божье / Child of God [триллер, драма, криминал, 2013] HDRip, Avo

Dracon

546 | 16

1.46 ГБ

В этой теме нет новых непрочитанных сообщений. Тайное влечение / Adore [Драма, 2013] HDRip, dub [Чистый звук]

Dracon

1005 | 26

1.46 ГБ

В этой теме нет новых непрочитанных сообщений. Всё тайное становится явным / When the Bough Breaks [ужасы, триллер, драма, детектив, 2016] TS, mvo

marya111

659 | 66

1.37 ГБ

В этой теме нет новых непрочитанных сообщений. Дитя божье / Child of God [триллер, драма, криминал, 2013] BDRip 720p, Avo [Матвеев]

Dracon

54 | 6

4.55 ГБ


Начать новую тему Ответить на тему  [ 1 сообщение ] 




Для Мосгорсуда, Роскомнадзора и рекламодателей:: mosgorsud-torrent[собачка]yandex.ru