Торрент файл
скачать торрент магнет ссылка Добавлен: 24 окт 2013, 23:32
Размер: 1.45 ГБ
Сидеров: 93
Личеров: 2
Статус: (salma3)
Автор

СообщениеДобавлено: 24 окт 2013, 23:32 

Не в сети
Супермодератор
Аватара пользователя
Дата регистрации:
15 фев 2012, 16:44
Возраст: 27
Спасибо: 5143 / 2090
Сообщения: 17478
Кекс в большом городе / Признания отвергнутой женщины / The Sweeter Side of Life

Год выхода: 2013
Жанр: комедия
Режиссер: Майкл Дамиан

В ролях: Кэтрин Моррис, Джеймс Бест, Аластер Маккензи, Steve Varnom, Сэм Дуглас, Стефен Хоган, Джейн Марч, Christine Oram, Джером Холдер, Джеффри Бертон

О фильме: У Дезире Харпер, светской львицы с Манхэттена, есть все — богатый супруг, красавицы-подруги и прекрасный гардероб. Но когда муж бросает ее и уходит к другой, идиллии приходит конец. Лишившись всего, Дезире пытается начать все сначала. Теперь ее дни заняты совсем другим — выпечкой кексов в пекарне своего отца, расположенной в маленьком городке в штате Нью-Джерси. Вскоре она понимает, что за пределами мегаполисов тоже можно жить полной жизнью, а настоящую любовь проще встретить в одноэтажной Америке, чем на Пятой авеню.[/color]



Выпущено: США
Продолжительность: 01:25:38
Перевод: Профессиональный (многоголосый) [лицензия]

Файл
Качество: DVDRip-AVC
Формат файла: MKV
Видео кодек: AVC
Аудио кодек: AC3
Видео: 1914 kb/s, 1024x568
Звук: AC3, 256 kb/s (6 ch)


Format : Matroska
Format version : Version 4 / Version 2
File size : 1.45 GiB
Duration : 1h 25mn
Overall bit rate : 2 426 Kbps
Movie name : Rip by 03nazar03
Encoded date : UTC 2013-10-24 12:32:25
Writing application : mkvmerge v6.1.0 ('Old Devil') built on Mar 4 2013 09:10:42
Writing library : libebml v1.3.0 + libmatroska v1.4.0

Video
ID : 1
Format : AVC
Format/Info : Advanced Video Codec
Format profile : High@L4.1
Format settings, CABAC : Yes
Format settings, ReFrames : 9 frames
Codec ID : V_MPEG4/ISO/AVC
Duration : 1h 25mn
Bit rate : 1 914 Kbps
Width : 1 024 pixels
Height : 568 pixels
Display aspect ratio : 16:9
Frame rate : 25.000 fps
Color space : YUV
Chroma subsampling : 4:2:0
Bit depth : 8 bits
Scan type : Progressive
Bits/(Pixel*Frame) : 0.132
Stream size : 1.12 GiB (77%)
Writing library : x264 core 130 r2273 b3065e6
Encoding settings : cabac=1 / ref=9 / deblock=1:-3:-3 / analyse=0x3:0x133 / me=umh / subme=11 / psy=1 / psy_rd=1.00:0.20 / mixed_ref=1 / me_range=32 / chroma_me=1 / trellis=2 / 8x8dct=1 / cqm=0 / deadzone=21,11 / fast_pskip=0 / chroma_qp_offset=-3 / threads=18 / lookahead_threads=2 / sliced_threads=0 / nr=0 / decimate=0 / interlaced=0 / bluray_compat=0 / constrained_intra=0 / bframes=8 / b_pyramid=2 / b_adapt=2 / b_bias=0 / direct=3 / weightb=1 / open_gop=0 / weightp=2 / keyint=250 / keyint_min=25 / scenecut=40 / intra_refresh=0 / rc_lookahead=60 / rc=2pass / mbtree=1 / bitrate=1914 / ratetol=1.0 / qcomp=0.60 / qpmin=0 / qpmax=69 / qpstep=4 / cplxblur=20.0 / qblur=0.5 / ip_ratio=1.40 / aq=1:1.00
Language : English
Default : Yes
Forced : No

Audio #1
ID : 2
Format : AC-3
Format/Info : Audio Coding 3
Mode extension : CM (complete main)
Format settings, Endianness : Big
Codec ID : A_AC3
Duration : 1h 25mn
Bit rate mode : Constant
Bit rate : 256 Kbps
Channel(s) : 6 channels
Channel positions : Front: L C R, Side: L R, LFE
Sampling rate : 48.0 KHz
Bit depth : 16 bits
Compression mode : Lossy
Stream size : 157 MiB (11%)
Language : Russian
Default : Yes
Forced : No

Audio #2
ID : 3
Format : AC-3
Format/Info : Audio Coding 3
Mode extension : CM (complete main)
Format settings, Endianness : Big
Codec ID : A_AC3
Duration : 1h 25mn
Bit rate mode : Constant
Bit rate : 256 Kbps
Channel(s) : 6 channels
Channel positions : Front: L C R, Side: L R, LFE
Sampling rate : 48.0 KHz
Bit depth : 16 bits
Compression mode : Lossy
Stream size : 157 MiB (11%)
Language : English
Default : No
Forced : No



Рип: 03nazar03




реклама партнёра


Вернуться к началу
 Профиль Отправить личное сообщение  
 
   Похожие торренты   Автор   Торрент   Размер 
В этой теме нет новых непрочитанных сообщений. Любовь в большом городе 3 [Комедия, 2014] DVDRip [Лицензия]

Dracon

1050 | 7

1.37 ГБ

В этой теме нет новых непрочитанных сообщений. Любовь в большом городе 3 [Комедия, 2014] DVD5 [Лицензия]

Dracon

64 | 5

3.6 ГБ

В этой теме нет новых непрочитанных сообщений. Секс в большом городе / Sex And The City / 1-6 сезоны 1-94 серии из 94 [мелодрама, комедия, 1998-2004] DVDRip-AVC, Mvo [НТВ]

salma3

39 | 51

41.14 ГБ

В этой теме нет новых непрочитанных сообщений. Любовь в большом городе 3 [01-06 из 08] [Комедия, 2014] HDTVRip

Dracon

5 | 2

3.83 ГБ

В этой теме нет новых непрочитанных сообщений. Любовь в большом городе 3 [8 серий из 08] [Комедия, 2014] SATRip

Dracon

0 | 2

4.64 ГБ

В этой теме нет новых непрочитанных сообщений. Любовь в большом городе 3 [Комедия, 2014] WEB-DL 720p [iTunes]

Dracon

317 | 17

2.35 ГБ

В этой теме нет новых непрочитанных сообщений. Любовь в большом городе: Трилогия (Марюс Вайсберг,Марюс Вайсберг,Дэвид Додсон) [2009-2013, Комедия, BDRip,WEB-DLRip-AVC] [720р] [DD5.1]

Nikolai.Baranov

0 | 3

11.22 ГБ


СообщениеДобавлено: 27 окт 2013, 16:07 

Не в сети
Супермодератор
Аватара пользователя
Дата регистрации:
15 фев 2012, 16:44
Возраст: 27
Спасибо: 5143 / 2090
Сообщения: 17478


_________________


Вернуться к началу
 Профиль Отправить личное сообщение  
 
Начать новую тему Ответить на тему  [ Сообщений: 2 ] 




Для Мосгорсуда, Роскомнадзора и рекламодателей:: mosgorsud-torrent[собачка]yandex.ru