Торрент файл
скачать торрент магнет ссылка Добавлен: 24 окт 2013, 23:08
Размер: 1.37 ГБ
Сидеров: 12
Личеров: 6
Статус: (salma3)
Автор

СообщениеДобавлено: 24 окт 2013, 23:08 

Не в сети
Супермодератор
Аватара пользователя
Дата регистрации:
15 фев 2012, 16:44
Возраст: 28
Спасибо: 6590 / 2145
Сообщения: 44156
Кодекс силы / Охотники за головами 2 / Hardball / Bounty hunters 2: Hardball

Год выхода: 1997
Жанр: Боевик, драма
Режиссер: Джордж Эршбэймер / George Erschbamer

В ролях: Майкл Дудикофф, Лиза Ховард, Тони Кёртис, Стив Бачич, Л. Харви Голд, Пабло Коффи, Риз МакБет, Эйприл Телек, Клер Райли, Гари Чок

О фильме:
Спецагент по поимке беглецов перешел дорогу боссам местной мафии, и они заказали его убийство. Опаснейшие столкновения, преследования, захват заложников, множество взрывов, и в финале этой кровавой битвы только один останется в живых.

Страна: Канада, США
Продолжительность: 01:36:51
Перевод: Авторский (одноголосый закадровый) Сергей Кузнецов

Файл
Качество: DVDRip
Формат файла: AVI
Видео кодек: XviD
Аудио кодек: AC3
Видео: XviD build 50, 704x400 (1.76:1), 23.976 fps, 1817 kbps avg
Звук: AC3 Dolby Digital, 48 kHz, 2/0 (L,R) ch, 192.00 kbps avg

Семпл

General
Complete name : D:Kodeks.sili.1997.DVDRip-Dego.avi
Format : AVI
Format/Info : Audio Video Interleave
File size : 1.37 GiB
Duration : 1h 36mn
Overall bit rate : 2 019 Kbps
Writing application : VirtualDubMod 1.5.10.2 (build 2540/release)
Writing library : VirtualDubMod build 2540/release
Video
ID : 0
Format : MPEG-4 Visual
Format profile : AdvancedSimple@L5
Format settings, BVOP : Yes
Format settings, QPel : No
Format settings, GMC : No warppoints
Format settings, Matrix : Default (MPEG)
Codec ID : XVID
Codec ID/Hint : XviD
Duration : 1h 36mn
Bit rate : 1 818 Kbps
Width : 704 pixels
Height : 400 pixels
Display aspect ratio : 16/9
Frame rate : 23.976 fps
Resolution : 24 bits
Colorimetry : 4:2:0
Scan type : Progressive
Bits/(Pixel*Frame) : 0.269
Stream size : 1.23 GiB (90%)
Writing library : XviD 1.2.1 (UTC 2008-12-04)
Audio
ID : 1
Format : AC-3
Format/Info : Audio Coding 3
Codec ID : 2000
Duration : 1h 36mn
Bit rate mode : Constant
Bit rate : 192 Kbps
Channel(s) : 2 channels
Channel positions : L R
Sampling rate : 48.0 KHz
Stream size : 133 MiB (10%)
Alignment : Split accross interleaves
Interleave, duration : 42 ms (1.00 video frame)
Interleave, preload duration : 500 ms


Релиз от: Dego




реклама партнёра


Вернуться к началу
 Профиль Отправить личное сообщение  
 
   Похожие торренты   Автор   Торрент   Размер 
В этой теме нет новых непрочитанных сообщений. Охотники за головами / Bounty Hunters [боевик, мелодрама, комедия, 2016] WEB-DL 720p, dvo

marya111

0 | 0

2.8 ГБ

В этой теме нет новых непрочитанных сообщений. Охотники за головами / Bounty Hunters [боевик, мелодрама, комедия, 2016] BDRemux 1080p, Mvo

salma3

87 | 40

18.52 ГБ

В этой теме нет новых непрочитанных сообщений. Охотники за головами / Bounty Hunters (Боевик, мелодрама, комедия, 2016) BDRip от ExKinoRay | L

marya111

57 | 4

1.45 ГБ

В этой теме нет новых непрочитанных сообщений. Охотники на людей / Bounty Hunters [Боевик, драма, 1996] HDRip, Avo

salma3

81 | 29

1.46 ГБ

В этой теме нет новых непрочитанных сообщений. Хардбол / Hardball [драма, спорт, 2001] WEBRip 1080p, Dub

salma3

51 | 14

11.62 ГБ

В этой теме нет новых непрочитанных сообщений. Euro Angels Hardball #13 The Hole Story / Евро Ангелы#13 История Дырки (Christoph Clark, Agi, Red Julia, Suzy Sweet, Yanos, Tunder, Liza Pirelli, Evil Angel) [2001 г., All Sex Movies, Anal, Foreign, DVDRip]

salma3

17 | 5

1.46 ГБ

В этой теме нет новых непрочитанных сообщений. Бун: Охотник за головами / Boone: The Bounty Hunter [боевик, 2017] WEB-DLRip, Mvo

salma3

584 | 400

1.37 ГБ


Начать новую тему Ответить на тему  [ 1 сообщение ] 




Для Мосгорсуда, Роскомнадзора и рекламодателей:: mosgorsud-torrent[собачка]yandex.ru