Торрент файл
скачать торрент магнет ссылка Добавлен: 24 окт 2013, 23:05
Размер: 1.46 ГБ
Сидеров: 51
Личеров: 11
Статус: (salma3)
Автор

СообщениеДобавлено: 24 окт 2013, 23:05 

Не в сети
Супермодератор
Аватара пользователя
Дата регистрации:
15 фев 2012, 16:44
Возраст: 27
Спасибо: 5139 / 2090
Сообщения: 17443
Мерцающий / The Glimmer Man

Год выхода: 1996
Жанр: Боевик, триллер, комедия
Режиссер: Джон Грэй

В ролях: Стивен Сигал, Кинен Айвори Уайанс, Боб Гантон, Брайан Кокс, Джон М. Джексон, Мишель Джонсон, Стивен Тоболовски, Питер Джейсон, Райан Кутрона, Ричард Гант, Роберт Мейлхаус, Джонни Стронг, Джесси Сток, Алекса Вега, Никки Кокс,

О фильме:
Перед полицейским управлением Лос-Анджелеса поставлена задача: найти и обезвредить преступника, на счету которого немало жертв. Непосредственно по следу убийцы идут два сыщика: Джек Коул и Джим Кэмпбелл. В таком ответственном и рискованном деле, как охота на убийцу, от партнера зависит многое, а иногда все. Однако именно эти двое полицейских решительно неспособны понять друг друга. Суровый и немногословный Коул, воспитанный на восточной философии и боевых искусствах, не может не удивляться своему напарнику, балагуру и шутнику. А Кэмпбелла, как человека здравомыслящего и житейски опытного, раздражает постоянная склонность партнера к мордобою и прочим резким действиям. Порой ему вообще начинает казаться, что преступник, которого они ищут, не кто иной, как его напарник Коул.



Страна: США
Продолжительность: 01:31:21
Перевод: Профессиональный (Дублированный) Варус Видео


Файл
Качество: WEB-DLRip
Формат файла: AVI
Видео кодек: XviD
Аудио кодек: AC3
Видео: 720x400, 23.976 fps, 2081 Kbps
Звук: АС3, 2 ch, 192 kbps, 48.000 kbps


Общее
Полное имя : The.Glimmer.Man.1996.WEB-DLRip.avi
Формат : AVI
Формат/Информация : Audio Video Interleave
Размер файла : 1,46 Гбайт
Продолжительность : 1 ч. 31 м.
Общий поток : 2283 Кбит/сек
Программа кодирования : VirtualDubMod 1.5.10.2 (build 2542/release)
Библиотека кодирования : VirtualDubMod build 2542/release

Видео
Идентификатор : 0
Формат : MPEG-4 Visual
Профиль формата : Advanced Simple@L5
Параметр BVOP формата : 1
Параметр QPel формата : Нет
Параметр GMC формата : Без точки перехода
Параметр матрицы формата : Выборочная
Идентификатор кодека : XVID
Идентификатор кодека/Подсказка : XviD
Продолжительность : 1 ч. 31 м.
Битрейт : 2081 Кбит/сек
Ширина : 720 пикс.
Высота : 400 пикс.
Соотношение сторон : 16:9
Частота кадров : 23,976 кадр/сек
Цветовое пространство : YUV
Подвыборка цветности : 4:2:0
Битовая глубина : 8 бит
Тип развёртки : Прогрессивная
Метод сжатия : С потерями
Бит/(Пиксели*Кадры) : 0.301
Размер потока : 1,33 Гбайт (91%)
Библиотека кодирования : XviD 73

Аудио
Идентификатор : 1
Формат : AC-3
Формат/Информация : Audio Coding 3
Расширение режима : CM (complete main)
Идентификатор кодека : 2000
Продолжительность : 1 ч. 31 м.
Вид битрейта : Постоянный
Битрейт : 192 Кбит/сек
Канал(ы) : 2 канала(ов)
Расположение каналов : Front: L R
Частота : 48,0 КГц
Битовая глубина : 16 бит
Метод сжатия : С потерями
Размер потока : 125 Мбайт (8%)
Выравнивание : Разделение по промежуткам
Продолжительность промежутка : 42 мс. (1,00 видеокадр)
Время предзагрузки промежутка : 500 ms


Релиз от: Leon-masl




реклама партнёра


Вернуться к началу
 Профиль Отправить личное сообщение  
 
   Похожие торренты   Автор   Торрент   Размер 
В этой теме нет новых непрочитанных сообщений. Первый удар / First Strike [боевик, триллер, комедия, 1996] DVDRip, Mvo

salma3

67 | 5

1.37 ГБ

В этой теме нет новых непрочитанных сообщений. Блуждающая пуля / Hollow point [боевик, триллер, комедия, 1996] DVDRip, Dvo [ОРТ]

salma3

73 | 3

1.46 ГБ

В этой теме нет новых непрочитанных сообщений. Блуждающая пуля / Hollow Point [Боевик, триллер, комедия, 1996] DVDRip-AVC, 2mvo+Avo

salma3

87 | 4

2.18 ГБ

В этой теме нет новых непрочитанных сообщений. Первый удар / First Strike [Боевик, триллер, комедия, приключения, 1996] BDRip 1080p, Mvo

salma3

63 | 7

8.19 ГБ

В этой теме нет новых непрочитанных сообщений. Камера / The Chamber [Триллер, Драма, 1996] WEB-DLRip, Dvo

salma3

7 | 4

1.46 ГБ

В этой теме нет новых непрочитанных сообщений. Sundown - Glimmer [1999, Gothic Metal, MP3]

PriZraK

0 | 1

99.27 МБ

В этой теме нет новых непрочитанных сообщений. Обмануть всех / I Spy [боевик, триллер, комедия, приключения, 2002] WEB-DLRip, Dub

salma3

4 | 2

1.46 ГБ


Начать новую тему Ответить на тему  [ 1 сообщение ] 




Для Мосгорсуда, Роскомнадзора и рекламодателей:: mosgorsud-torrent[собачка]yandex.ru