Торрент файл
скачать торрент магнет ссылка Добавлен: 24 окт 2013, 22:34
Размер: 1.73 ГБ
Сидеров: 58
Личеров: 3
Автор

СообщениеДобавлено: 24 окт 2013, 22:34 

Не в сети
Супермодератор
Аватара пользователя
Дата регистрации:
15 фев 2012, 16:44
Возраст: 28
Спасибо: 6594 / 2145
Сообщения: 44279
Год выхода: 2012
Жанр: Драма, семейный
Режиссер: Дэвид М. Эванс
В ролях: Брэндон Тайлер Расселл (Бен Баррет), Мира Сорвино, Питер Фонда, Луис Госсет мл., Джейсон Лондон, Бу Бу Стюарт, Лолита Давидович, Тори Вайз, Дэйзи Хэмилтон, Гэбриэлль Буи

О фильме:
Вредного тринадцатилетнего пацана посылают на всё лето в деревню к дедушке. Дед — упрямый старый простак, не очень рад видеть своего внука. Бен знакомится с собакой, которую выгнали из дома, потому что её прежние хозяева, просто не могут позволить себе прокормить и поддержать домашнее животное. С помощью собаки Бен изучает важность дружбы, семьи и ответственности. И это лето станет самым незабываемым в его жизни.


Страна: США
Студия: TriCoast Studios
Продолжительность: 01:30:09
Перевод: Профессиональный многоголосый (НТВ+)

Файл
Кодек: MPEG-4 AVC
Качество: HDTVRip (AVC)
Видео: 2300 Кбит/с, 1024x576, 25.000 кадр/с
Звук: Русский (АС3, 6 ch, 448 Кбит/с)

Семпл


Общее
Полное имя : Smitti.2012.x264.HDTVRip(AVC).MediaClub.mkv
Формат : Matroska
Версия формата : Version 2
Размер файла : 1,73 Гбайт
Продолжительность : 1 ч. 30 м.
Общий поток : 2748 Кбит/сек
Дата кодирования : UTC 2013-10-24 17:48:08
Программа кодирования : mkvmerge v5.4.0 ('Piper') built on Mar 10 2012 13:34:39
Библиотека кодирования : libebml v1.2.3 + libmatroska v1.3.0

Видео
Идентификатор : 1
Формат : AVC
Формат/Информация : Advanced Video Codec
Профиль формата : High@L4.1
Параметр CABAC формата : Да
Параметр ReFrames формата : 9 кадров
Идентификатор кодека : V_MPEG4/ISO/AVC
Продолжительность : 1 ч. 30 м.
Битрейт : 2300 Кбит/сек
Ширина : 1024 пикселя
Высота : 576 пикселей
Соотношение сторон : 16:9
Режим частоты кадров : Постоянный
Частота кадров : 25,000 кадров/сек
Цветовое пространство : YUV
Субдискретизация насыщенности : 4:2:0
Битовая глубина : 8 бит
Тип развёртки : Прогрессивная
Бит/(Пиксели*Кадры) : 0.156
Размер потока : 1,41 Гбайт (82%)
Библиотека кодирования : x264 core 125 r2208 d9d2288
Настройки программы : cabac=1 / ref=9 / deblock=1:-2:-2 / analyse=0x3:0x133 / me=umh / subme=10 / psy=1 / psy_rd=1.00:0.15 / mixed_ref=1 / me_range=32 / chroma_me=1 / trellis=2 / 8x8dct=1 / cqm=0 / deadzone=21,11 / fast_pskip=0 / chroma_qp_offset=-3 / threads=6 / lookahead_threads=1 / sliced_threads=0 / nr=0 / decimate=0 / interlaced=0 / bluray_compat=0 / constrained_intra=0 / bframes=8 / b_pyramid=2 / b_adapt=2 / b_bias=0 / direct=3 / weightb=1 / open_gop=0 / weightp=2 / keyint=250 / keyint_min=25 / scenecut=40 / intra_refresh=0 / rc=2pass / mbtree=0 / bitrate=2300 / ratetol=1.0 / qcomp=0.60 / qpmin=0 / qpmax=69 / qpstep=4 / cplxblur=20.0 / qblur=0.5 / ip_ratio=1.40 / pb_ratio=1.30 / aq=1:0.80
Default : Да
Forced : Нет

Аудио
Идентификатор : 2
Формат : AC-3
Формат/Информация : Audio Coding 3
Расширение режима : CM (complete main)
Параметр Endianness формата : Big
Идентификатор кодека : A_AC3
Продолжительность : 1 ч. 30 м.
Вид битрейта : Постоянный
Битрейт : 448 Кбит/сек
Каналы : 6 каналов
Расположение каналов : Front: L C R, Side: L R, LFE
Частота : 48,0 КГц
Битовая глубина : 16 бит
Метод сжатия : С потерями
Размер потока : 289 Мбайт (16%)
Язык : Russian
Default : Да
Forced : Нет


Релиз от:




реклама партнёра


Вернуться к началу
 Профиль Отправить личное сообщение  
 
   Похожие торренты   Автор   Торрент   Размер 
В этой теме нет новых непрочитанных сообщений. Смитти / Smitty [Драма, семейный, 2012] BDRip 720p, Mvo

salma3

13 | 1

4.36 ГБ

В этой теме нет новых непрочитанных сообщений. Смитти / Smitty [Драма, семейный, 2012] BDRemux 1080p, Mvo

salma3

1 | 6

21.54 ГБ

В этой теме нет новых непрочитанных сообщений. Рождество с Холли / Christmas with Holly [Драма, семейный, 2012] HDTVRip, Mvo [Disney]

salma3

185 | 17

1.45 ГБ

В этой теме нет новых непрочитанных сообщений. Пробуждение / Wide Awake [драма, комедия, семейный, 1998] HDTVRip 720p, Mvo

salma3

31 | 3

3.08 ГБ

В этой теме нет новых непрочитанных сообщений. Волшебник / The Wizard [драма, комедия, приключения, семейный, 1989] HDTVRip 720p, Dvo

salma3

13 | 5

3.17 ГБ

В этой теме нет новых непрочитанных сообщений. Легенда Лонгвуда / The Legend of Longwood [драма, приключения, семейный, фэнтези, 2014] HDTVRip, Mvo [официальный звук]

salma3

95 | 24

1.37 ГБ

В этой теме нет новых непрочитанных сообщений. Все любят китов / Big Miracle [драма, мелодрама, семейный, 2012] BDRip-AVC, Dub [Лицензия]

salma3

73 | 18

1.45 ГБ


Начать новую тему Ответить на тему  [ 1 сообщение ] 




Для Мосгорсуда, Роскомнадзора и рекламодателей:: mosgorsud-torrent[собачка]yandex.ru