Торрент файл
скачать торрент магнет ссылка Добавлен: 24 окт 2013, 10:56
Размер: 2.18 ГБ
Сидеров: 130
Личеров: 11
Статус: (salma3)
Автор

СообщениеДобавлено: 24 окт 2013, 10:56 

Не в сети
Зам. Админа
Аватара пользователя
Дата регистрации:
02 дек 2010, 12:39
Спасибо: 12461 / 214
Сообщения: 27968
Страна: США
Жанр: комедия, криминал, боевик, детектив
Год выпуска: 2013
Продолжительность: 01:57:04

Перевод: Профессиональный (дублированный) iTunes Russia
Cубтитры: нет
Оригинальная аудиодорожка: английская

Режиссер: Пол Фиг / Paul Feig
В ролях: Сандра Буллок, Мелисса МакКарти, Демиан Бишир, Марлон Уайанс, Майкл Рапапорт, Джейн Куртин, Спокен Ризонс, Дэн Баккедаль, Таран Киллэм, Майкл МакДональд

Описание: Агенту ФБР и бостонскому полицейскому доверено ответственное задание: выйти на след и обезвредить опасного преступника. И это даже хорошо, что копы — женщины, ведь бандит-то — русский. А непредсказуемости русской смекалки можно противопоставить только столь же непредсказуемую женскую логику.



Качество видео: BDRip-AVC [Рип с The Heat 2013 Theatrical Cut 1080p Blu-ray Remux AVC DTS-HD MA 5.1 - KRaLiMaRKo]
Формат видео: MKV
Видео: х264, 1152х480 (2.40:1), 23.976 fps, 2028 Кbps, 0.153 bit/pixel
Аудио: 48 kHz, AC3 Dolby Digital, 3/2 (L,C,R,l,r) + LFE ch, ~384 kbps [rus]
Аудио 2: 48 kHz, AC3 Dolby Digital, 3/2 (L,C,R,l,r) + LFE ch, ~256 kbps [eng]

Complete name : The.Heat.2013.Theatrical Cut.x264.BDRip.AVC-ed_rez.mkv
Format : Matroska
Format version : Version 2
File size : 2.18 GiB
Duration : 1h 57mn
Overall bit rate : 2 670 Kbps
Movie name : The Heat (2013) [Theatrical Cut] encoded by ed_rez
Encoded date : UTC 2013-10-23 19:51:14
Writing application : mkvmerge v6.4.1 ('Omega Point') built on Sep 16 2013 22:05:10
Writing library : libebml v1.3.0 + libmatroska v1.4.1

Video
ID : 1
Format : AVC
Format/Info : Advanced Video Codec
Format profile : High@L4.1
Format settings, CABAC : Yes
Format settings, ReFrames : 11 frames
Codec ID : V_MPEG4/ISO/AVC
Duration : 1h 57mn
Bit rate : 2 028 Kbps
Width : 1 152 pixels
Height : 480 pixels
Display aspect ratio : 2.40:1
Frame rate mode : Constant
Frame rate : 23.976 fps
Color space : YUV
Chroma subsampling : 4:2:0
Bit depth : 8 bits
Scan type : Progressive
Bits/(Pixel*Frame) : 0.153
Stream size : 1.62 GiB (74%)
Title : The Heat (2013) Theatrical Cut
Writing library : x264 core 133 r2334 a3ac64b
Encoding settings : cabac=1 / ref=11 / deblock=1:-2:-1 / analyse=0x3:0x113 / me=umh / subme=10 / psy=1 / psy_rd=1.05:0.05 / mixed_ref=1 / me_range=32 / chroma_me=1 / trellis=2 / 8x8dct=1 / cqm=0 / deadzone=21,11 / fast_pskip=0 / chroma_qp_offset=-3 / threads=12 / lookahead_threads=3 / sliced_threads=0 / nr=0 / decimate=0 / interlaced=0 / bluray_compat=0 / constrained_intra=0 / bframes=11 / b_pyramid=2 / b_adapt=2 / b_bias=0 / direct=3 / weightb=1 / open_gop=0 / weightp=2 / keyint=249 / keyint_min=23 / scenecut=40 / intra_refresh=0 / rc_lookahead=60 / rc=2pass / mbtree=0 / bitrate=2028 / ratetol=1.0 / qcomp=0.70 / qpmin=0 / qpmax=69 / qpstep=4 / cplxblur=20.0 / qblur=0.5 / vbv_maxrate=18000 / vbv_bufsize=20000 / nal_hrd=none / ip_ratio=1.40 / pb_ratio=1.30 / aq=2:1.00
Language : English
Default : Yes
Forced : No
Color primaries : BT.709
Transfer characteristics : BT.709
Matrix coefficients : BT.709

Audio #1
ID : 2
Format : AC-3
Format/Info : Audio Coding 3
Mode extension : CM (complete main)
Format settings, Endianness : Big
Codec ID : A_AC3
Duration : 1h 57mn
Bit rate mode : Constant
Bit rate : 384 Kbps
Channel count : 6 channels
Channel positions : Front: L C R, Side: L R, LFE
Sampling rate : 48.0 KHz
Bit depth : 16 bits
Compression mode : Lossy
Stream size : 322 MiB (14%)
Title : [Dub - iTunes Russia] AC3, 6 ch, 384 Kbps
Language : Russian
Default : Yes
Forced : No

Audio #2
ID : 3
Format : AC-3
Format/Info : Audio Coding 3
Mode extension : CM (complete main)
Format settings, Endianness : Big
Codec ID : A_AC3
Duration : 1h 57mn
Bit rate mode : Constant
Bit rate : 256 Kbps
Channel count : 6 channels
Channel positions : Front: L C R, Side: L R, LFE
Sampling rate : 48.0 KHz
Bit depth : 16 bits
Compression mode : Lossy
Stream size : 214 MiB (10%)
Title : AC3, 6 ch, 256 Kbps
Language : English
Default : No
Forced : No
x264 [info]: frame I:1832 Avg QP:16.69 size: 98207
x264 [info]: frame P:33521 Avg QP:20.42 size: 23374
x264 [info]: frame B:133070 Avg QP:22.42 size: 6143
x264 [info]: consecutive B-frames: 1.9% 2.1% 5.6% 13.8% 14.9% 49.6% 5.6% 1.5% 1.7% 2.3% 0.7% 0.3%






реклама партнёра


Вернуться к началу
 Профиль  
 
   Похожие торренты   Автор   Торрент   Размер 
В этой теме нет новых непрочитанных сообщений. Зной Явы / Java Heat [боевик, триллер, драма, криминал, 2013] BDRip 720p, Dub+Sub

Dracon

53 | 3

5.61 ГБ

В этой теме нет новых непрочитанных сообщений. Голливудские копы / Hollywood Homicide [боевик, триллер, комедия, криминал, 2003] BDRip 720p, Dub+Mvo+Sub

salma3

2 | 3

7.21 ГБ

В этой теме нет новых непрочитанных сообщений. Типа копы / Let's Be Cops [Комедия, 2014] BDRip 1080p, Dub [iTunes]

Dracon

317 | 14

8.99 ГБ

В этой теме нет новых непрочитанных сообщений. Типа копы / Let's Be Cops [Комедия, 2014] BDRip 720p, Dub [iTunes]

Dracon

135 | 5

4.36 ГБ

В этой теме нет новых непрочитанных сообщений. Пылающий остров / Зной Явы / Java Heat [боевик, триллер, драма, криминал, 2013] BDRip 1080p, Dub+Avo+Sub

salma3

21 | 4

8.63 ГБ

В этой теме нет новых непрочитанных сообщений. Заваруха в городе / City Heat [боевик, комедия, криминал, 1984] BDRip, Mvo [НТВ+]

salma3

56 | 4

1.44 ГБ

В этой теме нет новых непрочитанных сообщений. Неправильные копы / Wrong cops [Комедия, криминал, 2013] WEB-DLRip, Mvo

Dracon

1295 | 64

1.37 ГБ


Начать новую тему Ответить на тему  [ 1 сообщение ] 




Для Мосгорсуда, Роскомнадзора и рекламодателей:: mosgorsud-torrent[собачка]yandex.ru