Торрент файл
скачать торрент магнет ссылка Добавлен: 24 окт 2013, 00:23
Размер: 1.58 ГБ
Сидеров: 26
Личеров: 7
Статус: (salma3)
Автор

СообщениеДобавлено: 24 окт 2013, 00:23 

Не в сети
Супермодератор
Аватара пользователя
Дата регистрации:
15 фев 2012, 16:44
Возраст: 27
Спасибо: 5143 / 2090
Сообщения: 17514
Штучка / Вкусная дрянь / The Stuff

Год выхода: 1985
Жанр: ужасы, фантастика, комедия, детектив
Режиссер: Ларри Коэн / Larry Cohen

В ролях: Майкл Мориарти, Андреа Марковиччи, Гаррет Моррис, Пол Сорвино, Скотт Блум, Дэнни Айелло, Патрик О’Нил, Джеймс Диксон, Александр Скурби, Рассел Найп

О фильме:
Зимой на Аляске группа людей находит на снегу некую липкую массу, похожую на сгущёнку. Люди пробуют её — она оказывается очень вкусной. Но эта масса обладает одним интересным свойством — она живая. Но такой её особенности люди не придают особого внимания.
Через некоторое время данный продукт рекомендуют к питанию по всей стране. Людям она приходится по вкусу, они готовы есть её постоянно и заменить ей все свои обычные продукты питания. В стране строят фабрики, которые будут производить новый пищевой продукт.
Далее действие фильма смещается на одну семью. В этом семействе маленький мальчик обращает внимание на особенность массы — она живая и передвигается. Мальчик сообщает о своем наблюдении своим родителям, но они не видят в этом свойстве массы никакой опасности.
Но с этой вкусной дрянью всё оказалось совсем не просто — люди, употребляющие её превращаются в бездушных зомби. Такими же становятся и родители мальчика, обнаружившего опасность, а также его старший брат. А сам мальчик вынужден убежать из дома.



Выпущено: США
Продолжительность: 01:29:41
Озвучивание: Профессиональный (полное дублирование) (Варус Видео)

Файл
Качество: DVDRip
Формат файла: AVI
Видео кодек: XviD
Аудио кодек: AC3
Видео: 672x368 (1.83:1), 23.976 fps, XviD build 50 ~2129 kbps avg, 0.36 bit/pixel
Аудио 1: Русский: 48 kHz, AC3 Dolby Digital, 2/0 (L,R) ch, ~192 kbps [полное дублирование]
Аудио2: Русский: 48 kHz, AC3 Dolby Digital, 2/0 (L,R) ch, ~192 kbps [одноголосый]


Этот фильм скорее комедия, чем ужасы. Сам сюжет высмеивает различные ужастики, которые буквально наводнили кинематограф. Что может быть смешнее белой массы, пожирающей людей. А ведь люди сами это ели! Кстати, слово «stuff» в переводе с английского имеет много значений. К фильму подходят лишь некоторые из них: 1. Вещество, материал. 2. Дрянь, хлам, чепуха. 3. Штука, штуковина. 4. Наркотики (ведь эта штука притягивала к себе людей как наркотик). 5. Наполнитель. 6. Запасы продовольствия. 7. Продукты, напитки (т. е. всё, что употребляется в пищу). 8. Объедаться. И это меньше половины значений этого слова, лишь те, что подходят к данному фильму!

«Вкусная дрянь», несмотря на свою комедийность, затрагивает серьёзные проблемы. В фильме говорится о том, что всем этим менеджерам и владельцам торговых точек, всем им, по сути, наплевать на то, что потребляют нормальные люди, главное для них — продать товар. А ещё лучше, если это будет что-то неизвестное, что-то новой. Так и получается с «дрянью». Когда все поняли, что лучше не иметь с ней дело, и её забыли, появился новый продукт под названием «Вкуснятина».

Как и во многих других фильмах, во «Вкусной дряни» именно ребёнок обнаруживает отвратительные свойства белой массы, сначала ему никто не верит, а потом все убеждаются, что он прав. Этот приём использовался во многих других фильмах, так что здесь он не вызывает особого интереса.

Сам вид этой «дряни» вызывает смех. Действительно, трудно не смеяться, когда белая масса гонится за людьми и пожирает их. Ларри Коэн сделал смех неотъемлемым эффектом этого фильма, хотя не у всех режиссёров это получается. Смех то смехом, но Коэну удалось затащить в свой фильм едкую сатиру на современное производство, а вот это уже встретишь довольно редко.

9 из 10

General
Complete name : E:\Фильмы\Штучка (Вкусная дрянь).1985.Dub+VO.[tfile.ru].avi
Format : AVI
Format/Info : Audio Video Interleave
File size : 1.58 GiB
Duration : 1h 29mn
Overall bit rate : 2 518 Kbps
Writing application : VirtualDubMod 1.5.10.3 (build 2550/release)
Writing library : VirtualDubMod build 2550/release

Video
ID : 0
Format : MPEG-4 Visual
Format profile : Advanced Simple@L5
Format settings, BVOP : 4
Format settings, QPel : No
Format settings, GMC : No warppoints
Format settings, Matrix : Default (MPEG)
Codec ID : XVID
Codec ID/Hint : XviD
Duration : 1h 29mn
Bit rate : 2 130 Kbps
Width : 672 pixels
Height : 368 pixels
Display aspect ratio : 16:9
Frame rate : 23.976 fps
Color space : YUV
Chroma subsampling : 4:2:0
Bit depth : 8 bits
Scan type : Progressive
Compression mode : Lossy
Bits/(Pixel*Frame) : 0.359
Stream size : 1.33 GiB (85%)
Writing library : XviD 1.2.1 (UTC 2008-12-04)

Audio #1
ID : 1
Format : AC-3
Format/Info : Audio Coding 3
Mode extension : CM (complete main)
Codec ID : 2000
Duration : 1h 28mn
Bit rate mode : Constant
Bit rate : 192 Kbps
Channel(s) : 2 channels
Channel positions : Front: L R
Sampling rate : 48.0 KHz
Bit depth : 16 bits
Compression mode : Lossy
Stream size : 121 MiB (7%)
Alignment : Split accross interleaves
Interleave, duration : 42 ms (1.02 video frame)
Interleave, preload duration : 500 ms

Audio #2
ID : 2
Format : AC-3
Format/Info : Audio Coding 3
Mode extension : CM (complete main)
Codec ID : 2000
Duration : 1h 26mn
Bit rate mode : Constant
Bit rate : 192 Kbps
Channel(s) : 2 channels
Channel positions : Front: L R
Sampling rate : 48.0 KHz
Bit depth : 16 bits
Compression mode : Lossy
Stream size : 119 MiB (7%)
Alignment : Split accross interleaves
Interleave, duration : 43 ms (1.04 video frame)
Interleave, preload duration : 500 ms

















реклама партнёра


Вернуться к началу
 Профиль Отправить личное сообщение  
 
   Похожие торренты   Автор   Торрент   Размер 
В этой теме нет новых непрочитанных сообщений. Вкусная Дрянь / Смертельный Десерт / The Stuff [Ужасы, фантастика, комедия, детектив, 1985] BDRemux 1080p, Dub

salma3

0 | 4

23.75 ГБ

В этой теме нет новых непрочитанных сообщений. Вкусная дрянь / The Stuff [ужасы, фантастика, комедия, 1985] BDRip 720p, Dub+Avo+Sub

salma3

38 | 4

7.39 ГБ

В этой теме нет новых непрочитанных сообщений. Сумеречная зона / The Twilight Zone / 1-3 сезоны 1-110 серии из 110 [ужасы, фантастика, фэнтези, триллер, детектив, 1985-1989] DVDRip-AVC, Mvo+Avo [СТС]

salma3

7 | 13

29.99 ГБ

В этой теме нет новых непрочитанных сообщений. Authograph - That's The Stuff [1985, Hard Rock, MP3]

PriZraK

0 | 1

90.3 МБ

В этой теме нет новых непрочитанных сообщений. Реаниматор / Re-Animator [ужасы, фантастика, комедия, 1985] BDRip, Mvo

salma3

8 | 3

1.45 ГБ

В этой теме нет новых непрочитанных сообщений. Возвращение живых мертвецов / The Return of the Living Dead [ужасы, фантастика, комедия, 1985] HDRip, Dvo [НТВ+]

salma3

24 | 4

1.45 ГБ

В этой теме нет новых непрочитанных сообщений. Следствие вели... с Леонидом Каневским. Вкусная смерть [27.11] (Документальный, детектив, криминал, расследование, история, 2016) HDTVRip от GeneralFim

marya111

132 | 9

572.25 МБ


Начать новую тему Ответить на тему  [ 1 сообщение ] 




Для Мосгорсуда, Роскомнадзора и рекламодателей:: mosgorsud-torrent[собачка]yandex.ru