Торрент файл
скачать торрент магнет ссылка Добавлен: 12 окт 2013, 12:52
Размер: 1.81 ГБ
Сидеров: 107
Личеров: 18
Автор

СообщениеДобавлено: 12 окт 2013, 12:52 

Не в сети
Зам. Админа
Аватара пользователя
Дата регистрации:
02 дек 2010, 12:39
Спасибо: 12460 / 214
Сообщения: 27968
Год выхода: 2012
Жанр: Драма
Режиссер: Бинду Де Стоппани
В ролях: Клер Прайс, Энцо Сканци, Глен Блэкхолл, Хайди Диггельман, Амаду Аглая, Гэбриел Белтрами, Миколь Бонетти, Nina Conconi, Элиза Конте, Бинду Де Стоппани, Джанлука Гамбино, Карла Юрий, Джулиан Мартин, Дэвид Майклс, Синция Моранди, Кларисса Тами

О фильме:
Романтическа драма, происходящая в живописном месте в итальянской Швейцарии. Красивая Алиса в двадцать с небольшим лет, выходит из под контроля родителей и уезжает. Когда ее отец умирает, она возвращается в деревню своего детства, чтобы исполнить его волю. Здесь она встречает бабушку, которую никогда не знала, и молодого мальчика, страдающего эпилепсией. Мы увидим, сможет ли Алиса исправить вред, причиненный воюющими родителями. В конечном итоге это вдохновляющий рассказ о силе любви и дружбе.



Страна: Великобритания
Студия: Manmade Films, RSI-Radiotelevisione Svizzera
Продолжительность: 01:34:44
Перевод: Профессиональный многоголосый (ТПО Ред Медиа)

Кодек: MPEG-4 AVC
Качество: HDTVRip (AVC)
Видео: 2550 Кбит/с, 1024x510, 25.000 кадр/с
Звук: Русский (АС3, 2 ch, 192 Кбит/с)

Семпл


Общее
Полное имя : Pryzhok.2012.x264.HDTVRip(AVC).MediaClub.mkv
Формат : Matroska
Версия формата : Version 2
Размер файла : 1,81 Гбайт
Продолжительность : 1 ч. 34 м.
Общий поток : 2742 Кбит/сек
Дата кодирования : UTC 2013-10-22 12:26:59
Программа кодирования : mkvmerge v5.4.0 ('Piper') built on Mar 10 2012 13:34:39
Библиотека кодирования : libebml v1.2.3 + libmatroska v1.3.0

Видео
Идентификатор : 1
Формат : AVC
Формат/Информация : Advanced Video Codec
Профиль формата : High@L4.1
Параметр CABAC формата : Да
Параметр ReFrames формата : 9 кадров
Идентификатор кодека : V_MPEG4/ISO/AVC
Продолжительность : 1 ч. 34 м.
Битрейт : 2550 Кбит/сек
Ширина : 1024 пикселя
Высота : 510 пикселей
Соотношение сторон : 2,008
Режим частоты кадров : Постоянный
Частота кадров : 25,000 кадров/сек
Цветовое пространство : YUV
Субдискретизация насыщенности : 4:2:0
Битовая глубина : 8 бит
Тип развёртки : Прогрессивная
Бит/(Пиксели*Кадры) : 0.195
Размер потока : 1,65 Гбайт (91%)
Библиотека кодирования : x264 core 125 r2208 d9d2288
Настройки программы : cabac=1 / ref=9 / deblock=1:-2:-2 / analyse=0x3:0x133 / me=umh / subme=10 / psy=1 / psy_rd=1.00:0.15 / mixed_ref=1 / me_range=32 / chroma_me=1 / trellis=2 / 8x8dct=1 / cqm=0 / deadzone=21,11 / fast_pskip=0 / chroma_qp_offset=-3 / threads=6 / lookahead_threads=1 / sliced_threads=0 / nr=0 / decimate=0 / interlaced=0 / bluray_compat=0 / constrained_intra=0 / bframes=8 / b_pyramid=2 / b_adapt=2 / b_bias=0 / direct=3 / weightb=1 / open_gop=0 / weightp=2 / keyint=250 / keyint_min=25 / scenecut=40 / intra_refresh=0 / rc=2pass / mbtree=0 / bitrate=2550 / ratetol=1.0 / qcomp=0.60 / qpmin=0 / qpmax=69 / qpstep=4 / cplxblur=20.0 / qblur=0.5 / ip_ratio=1.40 / pb_ratio=1.30 / aq=1:0.80
Default : Да
Forced : Нет

Аудио
Идентификатор : 2
Формат : AC-3
Формат/Информация : Audio Coding 3
Расширение режима : CM (complete main)
Параметр Endianness формата : Big
Идентификатор кодека : A_AC3
Продолжительность : 1 ч. 34 м.
Вид битрейта : Постоянный
Битрейт : 192 Кбит/сек
Каналы : 2 канала
Расположение каналов : Front: L R
Частота : 48,0 КГц
Битовая глубина : 16 бит
Метод сжатия : С потерями
Размер потока : 130 Мбайт (7%)
Язык : Russian
Default : Да
Forced : Нет


Релиз от:




реклама партнёра


Вернуться к началу
 Профиль  
 
   Похожие торренты   Автор   Торрент   Размер 
В этой теме нет новых непрочитанных сообщений. Мачо и ботан 2 / 22 Jump Street [боевик, комедия, 2014] HDTVRip 1080p, Mvo [Трейлер]

salma3

71 | 3

198.26 МБ

В этой теме нет новых непрочитанных сообщений. Мачо и ботан / 21 Jump Street [боевик, комедия, криминал, 2012] HDRip, Dub [iPad]

salma3

18 | 2

1.47 ГБ

В этой теме нет новых непрочитанных сообщений. Мачо и ботан: Дилогия / Jump Street: Dilogy [комедия, боевик, криминал, 2012-2014] BDRip, Dub [Лицензия]

salma3

84 | 14

4.36 ГБ

В этой теме нет новых непрочитанных сообщений. Затяжной прыжок / Cutaway [боевик, 2000] DVDRip, Avo

salma3

44 | 4

1.46 ГБ

В этой теме нет новых непрочитанных сообщений. Прыжок Гепарда / Гепард / Малыш / Chirutha [боевик, мелодрама, 2007] DVDRip, Mvo

salma3

46 | 7

1.46 ГБ

В этой теме нет новых непрочитанных сообщений. Jump - The Black Pilgrim [2013, Progressive Rock, MP3]

PriZraK

0 | 1

99.64 МБ

В этой теме нет новых непрочитанных сообщений. Judas Jump - Scorch [1970, Progressive Rock, MP3]

PriZraK

0 | 1

91.29 МБ


Начать новую тему Ответить на тему  [ 1 сообщение ] 




Для Мосгорсуда, Роскомнадзора и рекламодателей:: mosgorsud-torrent[собачка]yandex.ru