Торрент файл
скачать торрент магнет ссылка Добавлен: 15 окт 2013, 13:30
Размер: 1.45 ГБ
Сидеров: 23
Личеров: 5
Статус: (salma3)
Автор

СообщениеДобавлено: 15 окт 2013, 13:30 

В сети
Супермодератор
Аватара пользователя
Дата регистрации:
15 фев 2012, 16:44
Возраст: 27
Спасибо: 5121 / 2089
Сообщения: 17304
Мой лучший друг / Mon meilleur ami

Год выхода: 2006
Жанр: Комедия
Режиссер: Патрис Леконт / Patrice Leconte

В ролях: Даниель Отой, Дани Бун, Жюли Гайе, Жюли Дюран, Жак Мату, Мари Пийе, Элизабет Буржин, Анри Гарсен, Жак Списсер, Филипп дю Жанеран, Фабьен Чодат

О фильме:
Франсуа - успешный антиквар, ведущий роскошный образ жизни. Он высокомерен, эгоцетричен и... одинок. Катрин, его бизнес-партнер, предлагает пари: если Франсуа сможет найти друзей, она уступит ему очень ценную греческую вазу. Теперь у Франсуа есть всего несколько дней, чтобы проштудировать свою записную книжку и представить Катрин своего лучшего друга.



Страна: Франция
Продолжительность: 01:34:42
Перевод: Профессиональный (многоголосый, закадровый)

Файл
Качество: BDRip
Формат файла: AVI
Видео кодек: XviD
Аудио кодек: AC3
Видео: XviD, 720x304 (2.35:1), 1736 kbps, 24 fps, 0,331 bpp
Звук: AC3 / 5.1 / 48 kHz / 448 kbps / 16 bit

Семпл

Format : AVI
Format/Info : Audio Video Interleave
File size : 1.45 GiB
Duration : 1h 34mn
Overall bit rate : 2 194 Kbps
Movie name : Moi.lychii.drug.2006.XviD.АСЗ.BRip.-MediaClub
Director : -=MediaClub-Odessit=-
Writing application : VirtualDubMod 1.5.10.3 (build 2550/release)

Video
ID : 0
Format : MPEG-4 Visual
Format profile : Advanced Simple@L5
Format settings, BVOP : 1
Format settings, QPel : No
Format settings, GMC : No warppoints
Format settings, Matrix : Custom
Codec ID : XVID
Codec ID/Hint : XviD
Duration : 1h 34mn
Bit rate : 1 737 Kbps
Width : 720 pixels
Height : 304 pixels
Display aspect ratio : 2.35:1
Frame rate : 24.000 fps
Color space : YUV
Chroma subsampling : 4:2:0
Bit depth : 8 bits
Scan type : Progressive
Compression mode : Lossy
Bits/(Pixel*Frame) : 0.331
Stream size : 1.15 GiB (79%)
Writing library : XviD 73

Audio
ID : 1
Format : AC-3
Format/Info : Audio Coding 3
Mode extension : CM (complete main)
Codec ID : 2000
Duration : 1h 34mn
Bit rate mode : Constant
Bit rate : 448 Kbps
Channel(s) : 6 channels
Channel positions : Front: L C R, Side: L R, LFE
Sampling rate : 48.0 KHz
Bit depth : 16 bits
Compression mode : Lossy
Stream size : 303 MiB (20%)
Alignment : Split accross interleaves
Interleave, duration : 42 ms (1.00 video frame)
Interleave, preload duration : 500 ms



Релиз от:




реклама партнёра


Вернуться к началу
 Профиль Отправить личное сообщение  
 
   Похожие торренты   Автор   Торрент   Размер 
В этой теме нет новых непрочитанных сообщений. Мой друг - гей / Date and Switch [комедия, 2014] BDRip 720p, avo

Dracon

62 | 6

4.49 ГБ

В этой теме нет новых непрочитанных сообщений. Больше, чем друг / The Switch [драма, мелодрама, комедия, 2010] BDRip 720p, Dub+Mvo

salma3

53 | 6

4.82 ГБ

В этой теме нет новых непрочитанных сообщений. Друг моей подруги / L'ami de mon amie [Драма, мелодрама, комедия, 1987] BDRip 1080p, Mvo+Avo

salma3

9 | 2

10.11 ГБ

В этой теме нет новых непрочитанных сообщений. Самый близкий друг / Darling Companion [драма, мелодрама, комедия, 2012] BDRip, Dvo

salma3

144 | 23

1.46 ГБ

В этой теме нет новых непрочитанных сообщений. Друг мой / О, мой друг! / Oh My Friend [Мелодрама, 2011] HDRip, Mvo [Red Media]

salma3

1 | 2

1.46 ГБ

В этой теме нет новых непрочитанных сообщений. Друг моей подруги / L'ami de mon amie (Эрик Ромер / Eric Rohmer) [1987г., Франция, драма, мелодрама, комедия, BDRip] MVO

Alfredovich

3 | 0

1.45 ГБ

В этой теме нет новых непрочитанных сообщений. Верная Рука – друг индейцев / Old Surehand [приключения, вестерн, 1965] BDRip, Mvo [5 канал]

salma3

33 | 3

1.45 ГБ


Начать новую тему Ответить на тему  [ 1 сообщение ] 




Для Мосгорсуда, Роскомнадзора и рекламодателей:: mosgorsud-torrent[собачка]yandex.ru