Торрент файл
скачать торрент магнет ссылка Добавлен: 14 окт 2013, 11:30
Размер: 1.45 ГБ
Сидеров: 9
Личеров: 4
Статус: (salma3)
Автор

СообщениеДобавлено: 14 окт 2013, 11:30 

Не в сети
Зам. Админа
Аватара пользователя
Дата регистрации:
02 дек 2010, 12:39
Спасибо: 12461 / 214
Сообщения: 27968
Год выхода: 2012
Жанр: драма, история
Режиссер: Линьшань Чжао

В ролях: Чоу Юнь-Фат, Лю Ифэй, Хироши Тамаки, Алек Су, Ни Янь, Рой Чунг, Дахун Ни, Не Юань, Яо Лу, Синь-Чжи Цю...

О фильме: Троецарствие — период истории Китая. В эту пору разворачиваются действия фильма. Главная фигура фильма — Цао Цао. Он уже стар, но все еще остается влиятельным человеком. Сын Цао Цао пытается занять место отца. Эта драматическая история — о военной тактике, верности и предательстве, где есть место любви и убийству.



Страна: Китай
Продолжительность: 01:47:07
Перевод: Авторский одноголосый (Ю. Сербин)

Кодек: х.264
Качество: BDRip-AVC
Видео: 1024х432 (2,40:1), 24 fps, 1492 kbps, 0.141 bit/pixel
Звук: 48 kHz, AC3 Dolby Digital, 6 ch, ~448.00 kbps

&

Общее
Уникальный идентификатор : 184489773685444443822431980034385347207 (0x8ACB701DF9EF61908BDF3ADA71918287)
Полное имя : D:Tong que tai.2012.BDRip-AVC.mkv
Формат : Matroska
Версия формата : Version 4 / Version 2
Размер файла : 1,45 Гбайт
Продолжительность : 1 ч. 47 м.
Общий поток : 1942 Кбит/сек
Название фильма : Ассасины / The Assassins / Tong que tai (2012) BDRip-AVC rip by Rulya74
Дата кодирования : UTC 2013-10-14 06:00:01
Программа кодирования : mkvmerge v6.2.0 ('Promised Land') built on Apr 28 2013 12:22:01
Библиотека кодирования : libebml v1.3.0 + libmatroska v1.4.0

Видео
Идентификатор : 1
Формат : AVC
Формат/Информация : Advanced Video Codec
Профиль формата : High@L4.1
Параметр CABAC формата : Да
Параметр ReFrames формата : 6 кадров
Идентификатор кодека : V_MPEG4/ISO/AVC
Продолжительность : 1 ч. 47 м.
Битрейт : 1492 Кбит/сек
Ширина : 1024 пикселя
Высота : 432 пикселя
Соотношение сторон : 2,40:1
Режим частоты кадров : Постоянный
Частота кадров : 24,000 кадра/сек
Цветовое пространство : YUV
Субдискретизация насыщенности : 4:2:0
Битовая глубина : 8 бит
Тип развёртки : Прогрессивная
Бит/(Пиксели*Кадры) : 0.141
Размер потока : 1,09 Гбайт (75%)
Библиотека кодирования : x264 core 133 r2334 a3ac64b
Настройки программы : cabac=1 / ref=6 / deblock=1:-3:-3 / analyse=0x3:0x113 / me=umh / subme=9 / psy=1 / psy_rd=1.00:0.02 / mixed_ref=1 / me_range=32 / chroma_me=1 / trellis=2 / 8x8dct=1 / cqm=0 / deadzone=21,11 / fast_pskip=0 / chroma_qp_offset=-3 / threads=10 / lookahead_threads=1 / sliced_threads=0 / nr=0 / decimate=1 / interlaced=0 / bluray_compat=0 / constrained_intra=0 / bframes=3 / b_pyramid=2 / b_adapt=1 / b_bias=0 / direct=3 / weightb=1 / open_gop=0 / weightp=2 / keyint=240 / keyint_min=24 / scenecut=40 / intra_refresh=0 / rc_lookahead=40 / rc=2pass / mbtree=1 / bitrate=1492 / ratetol=1.0 / qcomp=0.60 / qpmin=10 / qpmax=69 / qpstep=4 / cplxblur=20.0 / qblur=0.5 / vbv_maxrate=62500 / vbv_bufsize=78125 / nal_hrd=none / ip_ratio=1.40 / aq=2:1.00
Default : Да
Forced : Нет

Аудио
Идентификатор : 2
Формат : AC-3
Формат/Информация : Audio Coding 3
Расширение режима : CM (complete main)
Параметр Endianness формата : Big
Идентификатор кодека : A_AC3
Продолжительность : 1 ч. 47 м.
Вид битрейта : Постоянный
Битрейт : 448 Кбит/сек
Каналы : 6 каналов
Расположение каналов : Front: L C R, Side: L R, LFE
Частота : 48,0 КГц
Битовая глубина : 16 бит
Метод сжатия : С потерями
Размер потока : 343 Мбайт (23%)
Заголовок : Авторский (Ю. Сербин)
Язык : Russian
Default : Да
Forced : Нет





реклама партнёра


Вернуться к началу
 Профиль  
 
   Похожие торренты   Автор   Торрент   Размер 
В этой теме нет новых непрочитанных сообщений. Император / Emperor [драма, военный, история, 2012] BDRip 1080p, Mvo

Dracon

27 | 4

10.65 ГБ

В этой теме нет новых непрочитанных сообщений. Бомбежка / Het Bombardement [драма, военный, история, 2012] BDRip 720p, Dvo [НТВ+]

salma3

4 | 2

4.51 ГБ

В этой теме нет новых непрочитанных сообщений. Маскарад / Gwanghae, Wangyidoen namja (Чан Мин Чу) [2012, драма, история, BDRip 720p] dvo

Nickolas3435

16 | 3

4.38 ГБ

В этой теме нет новых непрочитанных сообщений. 7 убийц / 7 Assassins / Guang Hui Sui Yue (Эрик Цан, Хан Ень Ень) [2013, драма, боевик, приключения, HDRip] avo

Nickolas3435

30 | 2

1.46 ГБ

В этой теме нет новых непрочитанных сообщений. История ненависти / Hate Story [Триллер, 2012] BDRip, Mvo+Sub [Ред Медиа]

salma3

86 | 6

1.35 ГБ

В этой теме нет новых непрочитанных сообщений. Нерассказанная история США / The Untold History of the United States [01-06 из 10] [Документальный, история, 2012] SATRip, Avo

Dracon

136 | 44

4.9 ГБ

В этой теме нет новых непрочитанных сообщений. Нерассказанная история США Оливера Стоуна / The Untold History of the United States [01x00-09 из 10] [Документальный, история, 2012] HDTV 720p, Avo

Dracon

68 | 72

13.32 ГБ


СообщениеДобавлено: 19 янв 2014, 01:45 

Не в сети
Дата регистрации:
19 янв 2014, 01:44
Спасибо: 0 / 0
Сообщения: 1
Спасибо за роздачу, но как оказалось, я не поклонник китайского кина.

_________________
Предлагаю вам посетить мой блог - Волшебная планета На блоге вы найдёте много информации про красивые места нашей планеты, сможете почитать интересные легенды и поразгадывать загадки древности. Тематически он очень широкий, его география охватывает всю землю, а во времени - начиная с бронзового века. Вы сможете прочитать про таких как ассасины, дриады, доминиканцы, тамплиеры, эльфы, гномы, можно познакомиться с такими людьми как Хасан ибн Саббах, Авиценна, Омар Хаям, Влад Цепеш и многими другими.


Вернуться к началу
 Профиль Отправить личное сообщение  
 
Начать новую тему Ответить на тему  [ Сообщений: 2 ] 




Для Мосгорсуда, Роскомнадзора и рекламодателей:: mosgorsud-torrent[собачка]yandex.ru