Торрент файл
скачать торрент магнет ссылка Добавлен: 12 окт 2013, 21:33
Размер: 1.47 ГБ
Сидеров: 69
Личеров: 9
Статус: (salma3)
Автор

СообщениеДобавлено: 12 окт 2013, 21:33 

В сети
Супермодератор
Аватара пользователя
Дата регистрации:
15 фев 2012, 16:44
Возраст: 27
Спасибо: 5139 / 2090
Сообщения: 17443
Развод по-собачьи / Un divorce de chien

Год выхода: 2010
Жанр: Комедия
Режиссер: Лоррэйн Леви

В ролях: Эли Семун, Жюли Ферье, Кристин Китти, Марк Китти, Сара Мартинс, Лоран Бато, Ева Дарлан, Мартен Ламотт, Клер Надо

О фильме:
Молодая супружеская пара решает мирно разойтись. Все идет как нельзя лучше, пока дело не доходит до вопроса, с кем останется жить собака. Уступать никто не хочет, и начинается настоящая беспощадная война. Друзья семьи пытаются все уладить, но делают только хуже. И только собака находит выход в этой дурацкой истории!..



Выпущено: Франция, Бельгия
Продолжительность: 01:27:52
Перевод: Профессиональный многоголосый (ТПО Ред Медиа)

Файл
Качество: HDTVRip-AVC
Формат файла: AVC
Видео кодек: MPEG-4 AVC
Аудио кодек: AC3
Видео: 2200 Кбит/с, 1024x576, 25.000 кадр/с
Аудио: (АС3, 2 ch, 192 Кбит/с)


Семпл


Общее
Полное имя : Razvod.po.sobachi.2010.x264.HDTVRip(AVC).MediaClub.mkv
Формат : Matroska
Версия формата : Version 2
Размер файла : 1,47 Гбайт
Продолжительность : 1 ч. 27 м.
Общий поток : 2393 Кбит/сек
Дата кодирования : UTC 2013-10-12 16:13:56
Программа кодирования : mkvmerge v5.4.0 ('Piper') built on Mar 10 2012 13:34:39
Библиотека кодирования : libebml v1.2.3 + libmatroska v1.3.0

Видео
Идентификатор : 1
Формат : AVC
Формат/Информация : Advanced Video Codec
Профиль формата : High@L4.1
Параметр CABAC формата : Да
Параметр ReFrames формата : 9 кадров
Идентификатор кодека : V_MPEG4/ISO/AVC
Продолжительность : 1 ч. 27 м.
Битрейт : 2200 Кбит/сек
Ширина : 1024 пикселя
Высота : 576 пикселей
Соотношение сторон : 16:9
Режим частоты кадров : Постоянный
Частота кадров : 25,000 кадров/сек
Цветовое пространство : YUV
Субдискретизация насыщенности : 4:2:0
Битовая глубина : 8 бит
Тип развёртки : Прогрессивная
Бит/(Пиксели*Кадры) : 0.149
Размер потока : 1,32 Гбайт (90%)
Библиотека кодирования : x264 core 125 r2208 d9d2288
Настройки программы : cabac=1 / ref=9 / deblock=1:-2:-2 / analyse=0x3:0x133 / me=umh / subme=10 / psy=1 / psy_rd=1.00:0.15 / mixed_ref=1 / me_range=32 / chroma_me=1 / trellis=2 / 8x8dct=1 / cqm=0 / deadzone=21,11 / fast_pskip=0 / chroma_qp_offset=-3 / threads=6 / lookahead_threads=1 / sliced_threads=0 / nr=0 / decimate=0 / interlaced=0 / bluray_compat=0 / constrained_intra=0 / bframes=8 / b_pyramid=2 / b_adapt=2 / b_bias=0 / direct=3 / weightb=1 / open_gop=0 / weightp=2 / keyint=250 / keyint_min=25 / scenecut=40 / intra_refresh=0 / rc=2pass / mbtree=0 / bitrate=2200 / ratetol=1.0 / qcomp=0.60 / qpmin=0 / qpmax=69 / qpstep=4 / cplxblur=20.0 / qblur=0.5 / ip_ratio=1.40 / pb_ratio=1.30 / aq=1:0.80
Default : Да
Forced : Нет

Аудио
Идентификатор : 2
Формат : AC-3
Формат/Информация : Audio Coding 3
Расширение режима : CM (complete main)
Параметр Endianness формата : Big
Идентификатор кодека : A_AC3
Продолжительность : 1 ч. 27 м.
Вид битрейта : Постоянный
Битрейт : 192 Кбит/сек
Каналы : 2 канала
Расположение каналов : Front: L R
Частота : 48,0 КГц
Битовая глубина : 16 бит
Метод сжатия : С потерями
Размер потока : 121 Мбайт (8%)
Язык : Russian
Default : Да
Forced : Нет


Релиз от:




реклама партнёра


Вернуться к началу
 Профиль Отправить личное сообщение  
 
   Похожие торренты   Автор   Торрент   Размер 
В этой теме нет новых непрочитанных сообщений. Развод / Le Divorce [драма, мелодрама, комедия, 2003] HDTVRip, Dub

salma3

95 | 7

1.46 ГБ

В этой теме нет новых непрочитанных сообщений. Развод / Le Divorce [драма, мелодрама, комедия, 2003] HDTV 1080i, Dub [Невафильм]

salma3

44 | 10

4.94 ГБ

В этой теме нет новых непрочитанных сообщений. Как снег на голову / Невпопад / Un chien dans un jeu de quilles [комедия, 1983] DVDRip, Mvo

salma3

85 | 5

1.34 ГБ

В этой теме нет новых непрочитанных сообщений. Андалузский пес / Золотой век / Un chien andalou / L' Age D'or (Луис Бунюэль / Luis Bunuel) [1929, 1930 гг., классика киноавангарда, DVD5] AVO

Alfredovich

2 | 2

3.95 ГБ

В этой теме нет новых непрочитанных сообщений. Развод по-французски /  L'ex de ma vie (Дороте Себба) [Комедия, 2014] WEB-DLRip, Dub [iTunes]

Dracon

3 | 4

700.03 МБ

В этой теме нет новых непрочитанных сообщений. Это развод! / Serious Moonlight [комедия, мелодрама, криминал, 2009] BDRip, Mvo [лицензия]

salma3

4 | 4

1.46 ГБ

В этой теме нет новых непрочитанных сообщений. Развод по-французски /  L'ex de ma vie (Дороте Себба) [Комедия, 2014] WEB-DLRip, Dub [iTunes]

Dracon

40 | 3

1.37 ГБ


Начать новую тему Ответить на тему  [ 1 сообщение ] 




Для Мосгорсуда, Роскомнадзора и рекламодателей:: mosgorsud-torrent[собачка]yandex.ru