Торрент файл
скачать торрент магнет ссылка Добавлен: 11 окт 2013, 20:45
Размер: 1.46 ГБ
Сидеров: 29
Личеров: 2
Автор

СообщениеДобавлено: 11 окт 2013, 20:45 

Не в сети
Супермодератор
Аватара пользователя
Дата регистрации:
15 фев 2012, 16:44
Возраст: 27
Спасибо: 5139 / 2090
Сообщения: 17432
Информация о фильме
Название: Все создания божьи
Оригинальное название: All God's Creatures
Год выхода: 2011
Жанр: Триллер, драма, мелодрама
Режиссер: Райан Каммингс, Фрэнк Ликата
В ролях: Джош Фолан, Линда Джонсон, Джинджер Кролл, Карсон Грант, Роберт Майерс, Джессика Кэй, Кристи Прайс, Молли Фэйхи, Курт Петерсон, Джеффри Харди, Тим Мосс, Вероник Хёрли, Джерри Бэкстрон мл., Ричард Джордан, Виктор Арнез, Мэттью Хеннесси, Тиффани Ли, Диана ДеКарло, Коллин Доэрти, Трэвис Дель Валле, Дэниэл Энгус Кокс, Адам Барнетт, Стивен Френч

О фильме:
Джон Смит — с виду обычный молодой человек. Но на самом деле он — жестокий маньяк. Его дни заполнены однообразной работой, а по ночам он выходит на улицу и убивает «плохих женщин», давая выход негативной энергии. Случай сводит его с проституткой Делией, решившей порвать со своей профессией…


Страна: США
Студия: All Gods Creatures, Nitty Gritty Studios, Nyeh Entertainment, Sid & Nancy Productions
Продолжительность: 01:20:05
Перевод: Профессиональный многоголосый

Файл
Кодек: MPEG-4 AVC
Качество: HDTVRip (AVC)
Видео: 2350 Кбит/с, 1024x576, 25.000 кадр/с
Звук: Русский (АС3, 2 ch, 256 Кбит/с)

Семпл


Общее
Полное имя : Vse.sozdanija.bozhi.2011.x264.HDTVRip(AVC).MediaClub.mkv
Формат : Matroska
Версия формата : Version 2
Размер файла : 1,46 Гбайт
Продолжительность : 1 ч. 20 м.
Общий поток : 2605 Кбит/сек
Дата кодирования : UTC 2013-10-11 15:53:17
Программа кодирования : mkvmerge v5.4.0 ('Piper') built on Mar 10 2012 13:34:39
Библиотека кодирования : libebml v1.2.3 + libmatroska v1.3.0

Видео
Идентификатор : 1
Формат : AVC
Формат/Информация : Advanced Video Codec
Профиль формата : High@L4.1
Параметр CABAC формата : Да
Параметр ReFrames формата : 9 кадров
Идентификатор кодека : V_MPEG4/ISO/AVC
Продолжительность : 1 ч. 20 м.
Битрейт : 2350 Кбит/сек
Ширина : 1024 пикселя
Высота : 576 пикселей
Соотношение сторон : 16:9
Режим частоты кадров : Постоянный
Частота кадров : 25,000 кадров/сек
Цветовое пространство : YUV
Субдискретизация насыщенности : 4:2:0
Битовая глубина : 8 бит
Тип развёртки : Прогрессивная
Бит/(Пиксели*Кадры) : 0.159
Размер потока : 1,29 Гбайт (88%)
Библиотека кодирования : x264 core 125 r2208 d9d2288
Настройки программы : cabac=1 / ref=9 / deblock=1:-2:-2 / analyse=0x3:0x133 / me=umh / subme=10 / psy=1 / psy_rd=1.00:0.15 / mixed_ref=1 / me_range=32 / chroma_me=1 / trellis=2 / 8x8dct=1 / cqm=0 / deadzone=21,11 / fast_pskip=0 / chroma_qp_offset=-3 / threads=6 / lookahead_threads=1 / sliced_threads=0 / nr=0 / decimate=0 / interlaced=0 / bluray_compat=0 / constrained_intra=0 / bframes=8 / b_pyramid=2 / b_adapt=2 / b_bias=0 / direct=3 / weightb=1 / open_gop=0 / weightp=2 / keyint=250 / keyint_min=25 / scenecut=40 / intra_refresh=0 / rc=2pass / mbtree=0 / bitrate=2350 / ratetol=1.0 / qcomp=0.60 / qpmin=0 / qpmax=69 / qpstep=4 / cplxblur=20.0 / qblur=0.5 / ip_ratio=1.40 / pb_ratio=1.30 / aq=1:0.80
Default : Да
Forced : Нет

Аудио
Идентификатор : 2
Формат : AC-3
Формат/Информация : Audio Coding 3
Расширение режима : CM (complete main)
Параметр Endianness формата : Big
Идентификатор кодека : A_AC3
Продолжительность : 1 ч. 20 м.
Вид битрейта : Постоянный
Битрейт : 256 Кбит/сек
Каналы : 2 канала
Расположение каналов : Front: L R
Частота : 48,0 КГц
Битовая глубина : 16 бит
Метод сжатия : С потерями
Размер потока : 147 Мбайт (10%)
Язык : Russian
Default : Да
Forced : Нет


Релиз от:




реклама партнёра


Вернуться к началу
 Профиль Отправить личное сообщение  
 
   Похожие торренты   Автор   Торрент   Размер 
В этой теме нет новых непрочитанных сообщений. Небесные создания / Heavenly Creatures [триллер, драма, мелодрама, криминал, биография, 1994] BDRip, Mvo

salma3

89 | 21

1.45 ГБ

В этой теме нет новых непрочитанных сообщений. Свирепые создания / Fierce Creatures [комедия, 1997] HDTVRip 720p, Mvo+Avo+Sub

salma3

23 | 4

3.62 ГБ

В этой теме нет новых непрочитанных сообщений. Свирепые создания / Fierce Creatures [Комедия, 1997] BDRip 1080p, Mvo+Avo+Sub

salma3

42 | 5

7.76 ГБ

В этой теме нет новых непрочитанных сообщений. Tanya Hyde's Night Creatures / Ночные Создания (Tanya Hyde / Harmony Films) (Jasmine Jae, Samantha Bentley, Tiffany Doll, Lexi Lowe, Georgie Lyall...) [2014 г., Gonzo, Fetish, WEB-DL 1080p][Split Scenes]

friizze

5 | 6

9.59 ГБ

В этой теме нет новых непрочитанных сообщений. Прекрасные создания [фэнтези, драма, мелодрама, 2013] HDRip-AVC, Dub [Лицензия]

Dracon

7 | 2

2.08 ГБ

В этой теме нет новых непрочитанных сообщений. Божьи коровки / Ladybugs [комедия, семейный, спорт, 1992] BDRip 1080p, 2Dvo+Sub

salma3

19 | 4

10.09 ГБ

В этой теме нет новых непрочитанных сообщений. Amplified Backdoor Creatures - Sick Circus [2011, Robot-Will-Future-Delay-Rock, MP3]

PriZraK

0 | 1

137.93 МБ


Начать новую тему Ответить на тему  [ 1 сообщение ] 




Для Мосгорсуда, Роскомнадзора и рекламодателей:: mosgorsud-torrent[собачка]yandex.ru