Торрент файл
скачать торрент магнет ссылка Добавлен: 11 окт 2013, 10:22
Размер: 3.35 ГБ
Сидеров: 1555
Личеров: 108
Автор

СообщениеДобавлено: 11 окт 2013, 10:22 

Не в сети
Зам. Админа
Аватара пользователя
Дата регистрации:
02 дек 2010, 12:39
Спасибо: 12460 / 214
Сообщения: 27968
Год выпуска: 2013
Жанр: Комедия
Режиссер: Шон Леви
В ролях: Роуз Бирн, Джон Гудмен, Винс Вон, Оуэн Уилсон, Чути Тью, Джоэнна Гарсиа, Джош Гад, Джессика Зор, Дилан О’Брайэн, Б.Дж. Новак, Макс Мингелла

Описание: Недавно уволенные друзья, которым уже за сорок, решают устроиться в качестве стажеров в успешную интернет-компанию, руководители которой вдвое моложе.



Страна: США
Студия: 21 Laps Entertainment, Regency Enterprises, Twentieth Century Fox Film Corporation
Продолжительность: 02:05:01
Перевод: Дублированный (Лицензия)

Качество: BDRip (AVC)
Видео: MPEG-4 AVC, 2500 Кбит/с, 1024x436 23.976 кадр/с
Аудио #1: Русский (AC3, 6 ch, 448 Кбит/с) / Дублированный
Аудио #2: Украинский (AC3, 6 ch, 448 Кбит/с)
Аудио #3: Английский (AC3, 6 ch, 448 Кбит/с)
Субтитры: Русские, украинские, английские

Семпл



x264 [info]: frame I:2203 Avg QP:15.04 size: 81573
x264 [info]: frame P:44715 Avg QP:18.29 size: 25782
x264 [info]: frame B:132937 Avg QP:19.62 size: 7537
******************************************************************
Общее
Уникальный идентификатор : 226902477890880901695224414010863261740 (0xAAB3D3E1B1BAAEE9BAA4A5EBD1BC182C)
Полное имя : D:Mои раздачиKadry.2013.BDRip.(AVC)-MediaClub.mkv
Формат : Matroska
Версия формата : Version 4 / Version 2
Размер файла : 3,35 Гбайт
Продолжительность : 2 ч. 5 м.
Общий поток : 3837 Кбит/сек
Дата кодирования : UTC 2013-10-11 05:06:55
Программа кодирования : mkvmerge v6.1.0 ('Old Devil') built on Mar 4 2013 09:10:42
Библиотека кодирования : libebml v1.3.0 + libmatroska v1.4.0

Видео
Идентификатор : 1
Формат : AVC
Формат/Информация : Advanced Video Codec
Профиль формата : High@L4.1
Параметр CABAC формата : Да
Параметр ReFrames формата : 9 кадров
Идентификатор кодека : V_MPEG4/ISO/AVC
Продолжительность : 2 ч. 5 м.
Битрейт : 2500 Кбит/сек
Ширина : 1024 пикселя
Высота : 436 пикселей
Соотношение сторон : 2,35:1
Режим частоты кадров : Постоянный
Частота кадров : 23,976 кадра/сек
Цветовое пространство : YUV
Субдискретизация насыщенности : 4:2:0
Битовая глубина : 8 бит
Тип развёртки : Прогрессивная
Бит/(Пиксели*Кадры) : 0.234
Размер потока : 2,11 Гбайт (63%)
Заголовок : -=MediaClub-kaspr=-
Библиотека кодирования : x264 core 130 r2273 b3065e6
Настройки программы : cabac=1 / ref=9 / deblock=1:-3:-3 / analyse=0x3:0x133 / me=umh / subme=11 / psy=1 / psy_rd=1.00:0.20 / mixed_ref=1 / me_range=48 / chroma_me=1 / trellis=2 / 8x8dct=1 / cqm=0 / deadzone=21,11 / fast_pskip=0 / chroma_qp_offset=-3 / threads=12 / lookahead_threads=3 / sliced_threads=0 / nr=0 / decimate=0 / interlaced=0 / bluray_compat=0 / constrained_intra=0 / bframes=10 / b_pyramid=2 / b_adapt=2 / b_bias=0 / direct=3 / weightb=1 / open_gop=0 / weightp=2 / keyint=240 / keyint_min=23 / scenecut=40 / intra_refresh=0 / rc=2pass / mbtree=0 / bitrate=2500 / ratetol=1.0 / qcomp=0.60 / qpmin=0 / qpmax=69 / qpstep=4 / cplxblur=20.0 / qblur=0.5 / ip_ratio=1.40 / pb_ratio=1.30 / aq=1:1.00
Default : Да
Forced : Да

Аудио #1
Идентификатор : 2
Формат : AC-3
Формат/Информация : Audio Coding 3
Расширение режима : CM (complete main)
Параметр Endianness формата : Big
Идентификатор кодека : A_AC3
Продолжительность : 2 ч. 5 м.
Вид битрейта : Постоянный
Битрейт : 448 Кбит/сек
Каналы : 6 каналов
Расположение каналов : Front: L C R, Side: L R, LFE
Частота : 48,0 КГц
Битовая глубина : 16 бит
Метод сжатия : С потерями
Размер потока : 401 Мбайт (12%)
Заголовок : Дубляж
Язык : Russian
Default : Да
Forced : Да

Аудио #2
Идентификатор : 3
Формат : AC-3
Формат/Информация : Audio Coding 3
Расширение режима : CM (complete main)
Параметр Endianness формата : Big
Идентификатор кодека : A_AC3
Продолжительность : 2 ч. 5 м.
Вид битрейта : Постоянный
Битрейт : 448 Кбит/сек
Каналы : 6 каналов
Расположение каналов : Front: L C R, Side: L R, LFE
Частота : 48,0 КГц
Битовая глубина : 16 бит
Метод сжатия : С потерями
Размер потока : 401 Мбайт (12%)
Заголовок : Укр-дубляж
Язык : Ukrainian
Default : Нет
Forced : Нет

Аудио #3
Идентификатор : 4
Формат : AC-3
Формат/Информация : Audio Coding 3
Расширение режима : CM (complete main)
Параметр Endianness формата : Big
Идентификатор кодека : A_AC3
Продолжительность : 2 ч. 5 м.
Вид битрейта : Постоянный
Битрейт : 448 Кбит/сек
Каналы : 6 каналов
Расположение каналов : Front: L C R, Side: L R, LFE
Частота : 48,0 КГц
Битовая глубина : 16 бит
Метод сжатия : С потерями
Размер потока : 401 Мбайт (12%)
Заголовок : Оригинал
Язык : English
Default : Нет
Forced : Нет

Текст #1
Идентификатор : 5
Формат : UTF-8
Идентификатор кодека : S_TEXT/UTF8
Идентификатор кодека/Информация : UTF-8 Plain Text
Язык : Russian
Default : Нет
Forced : Нет

Текст #2
Идентификатор : 6
Формат : UTF-8
Идентификатор кодека : S_TEXT/UTF8
Идентификатор кодека/Информация : UTF-8 Plain Text
Язык : Ukrainian
Default : Нет
Forced : Нет

Текст #3
Идентификатор : 7
Формат : UTF-8
Идентификатор кодека : S_TEXT/UTF8
Идентификатор кодека/Информация : UTF-8 Plain Text
Язык : English
Default : Нет
Forced : Нет

Меню
00:00:00.000 : en:Chapter 01
00:05:28.036 : en:Chapter 03
00:07:50.428 : en:Chapter 05
00:14:21.568 : en:Chapter 07
00:19:40.387 : en:Chapter 09
00:25:58.932 : en:Chapter 11
00:28:59.779 : en:Chapter 13
00:32:37.371 : en:Chapter 15
00:35:04.769 : en:Chapter 17
00:36:19.343 : en:Chapter 19
00:41:52.009 : en:Chapter 21
00:44:34.922 : en:Chapter 23
00:48:04.840 : en:Chapter 25
00:50:37.576 : en:Chapter 27
00:58:27.754 : en:Chapter 29
01:02:17.775 : en:Chapter 31
01:06:08.798 : en:Chapter 33
01:11:12.851 : en:Chapter 35
01:14:02.646 : en:Chapter 37
01:15:46.917 : en:Chapter 39
01:18:54.437 : en:Chapter 41
01:21:27.298 : en:Chapter 43
01:24:11.629 : en:Chapter 45
01:26:07.078 : en:Chapter 47
01:27:57.730 : en:Chapter 49
01:29:37.496 : en:Chapter 51
01:31:39.910 : en:Chapter 53
01:37:15.788 : en:Chapter 55
01:42:32.938 : en:Chapter 57
01:48:12.819 : en:Chapter 59
01:54:18.810 : en:Chapter 61
01:57:37.633 : en:Chapter 63
02:05:01.160 : en:Chapter 65

Релиз:




реклама партнёра


Вернуться к началу
 Профиль  
 
   Похожие торренты   Автор   Торрент   Размер 
В этой теме нет новых непрочитанных сообщений. Война миров Z / World War Z [Ужасы, фантастика, боевик, триллер, драма, 2013] BDRip 720p, Dub+Sub [UNRATED | Лицензия]

hobbit1021

138 | 11

4.38 ГБ

В этой теме нет новых непрочитанных сообщений. Машина времени в джакузи 2 / Hot Tub Time Machine 2 (Стив Пинк) [фантастика, комедия, 2015] BDRip 1080p, Dub [UNRATED | Лицензия]

slawa4155

554 | 56

8.15 ГБ

В этой теме нет новых непрочитанных сообщений. Чудаки: Несносный дед / Jackass Presents: Bad Grandpa [комедия, 2013] BDRip 1080p, Mvo [UNRATED]

Dracon

3 | 2

13.73 ГБ

В этой теме нет новых непрочитанных сообщений. Чудаки: Несносный дед  / Jackass Presents: Bad Grandpa [комедия, 2013] BDRip 720p, Mvo [UNRATED]

Dracon

3 | 2

6.36 ГБ

В этой теме нет новых непрочитанных сообщений. Война миров Z / World War Z [ужасы, фантастика, боевик, триллер, приключения, 2013] BDRemux 1080p, Dub+5xAvo+Sub [Лицензия | Unrated Cut]

hobbit1021

28 | 7

49.21 ГБ

В этой теме нет новых непрочитанных сообщений. Пятьдесят оттенков серого / Fifty Shades of Grey (Сэм Тейлор-Джонсон) [Драма, мелодрама, 2015] BDRip-AVC, Dub+Sub [Лицензия | UNRATED]

Dracon

104 | 7

2.18 ГБ

В этой теме нет новых непрочитанных сообщений. Пятьдесят оттенков серого / Fifty Shades of Grey (Сэм Тейлор-Джонсон) [Драма, мелодрама, 2015] BDRip 1080p, Dub+Sub [Лицензия | UNRATED]

Dracon

599 | 47

7.76 ГБ


Начать новую тему Ответить на тему  [ 1 сообщение ] 




Для Мосгорсуда, Роскомнадзора и рекламодателей:: mosgorsud-torrent[собачка]yandex.ru