Торрент файл
скачать торрент магнет ссылка Добавлен: 10 окт 2013, 19:35
Размер: 1.46 ГБ
Сидеров: 24
Личеров: 5
Автор

СообщениеДобавлено: 10 окт 2013, 19:35 

Не в сети
Супермодератор
Аватара пользователя
Дата регистрации:
15 фев 2012, 16:44
Возраст: 28
Спасибо: 6565 / 2130
Сообщения: 43672
Приключения раввина Якова / Les aventures de Rabbi Jacob

Год выпуска: 1973
Страна: Франция, Италия
Жанр: Комедия, приключения
Продолжительность: 1:35:22
Перевод: Профессиональный (многоголосый закадровый)
Субтитры: нет

Режиссер: Жерар Ури / Gerard Oury

В ролях: Луи де Фюнес, Клод Жиро, Сюзи Делер, Марсель Далио, Ренцо Монтаньяни, Джанет Брандт, Андре Фалькон, Ксавье Желен, Анри Гибе и др.

Описание: Герой Луи де Фюнеса — типичный француз. У него стабильный доход и масса милых сердцу предрассудков. Один из них — четкое деление мира на«своих и чужих», «французов» и «всех прочих» — просто не дает Виктору покоя. Впрочем, это мало беспокоит героя — забияку и ортодокса — пока дорога нечаянного приключения не оборачивается для него опасным путешествием в «большой мир». А там — козни арабских террористов причудливо переплетаются с запутанной историей раввина Якова в Париж, а фабрика жевательной резинки становится полигоном для нешуточных баталий…



Качество видео: HDRip [BDRip 1080p]
Формат видео: AVI
Видео кодек: XviD
Аудио кодек: AC3
Видео: 720x432 (1.67:1), 23.976 fps, XviD build 73 ~1798 kbps avg, 0.24 bit/pixel
Аудио: 48 kHz, AC3 Dolby Digital, 3/2 (L,C,R,l,r) + LFE ch, ~384 kbps

Раздача от:


D:Мои рипыLes Aventures De Rabbi Jacob.1973.HDRip.dexter_lex.avi
General
Complete name : D:Мои рипыLes Aventures De Rabbi Jacob.1973.HDRip.dexter_lex.avi
Format : AVI
Format/Info : Audio Video Interleave
File size : 1.46 GiB
Duration : 1h 35mn
Overall bit rate : 2 192 Kbps
Writing application : VirtualDubMod 1.5.10.3 | http://www.virtualdub-fr.org || (build 2550/release)
Writing library : VirtualDubMod build 2550/release
Video #0
ID : 0
Format : MPEG-4 Visual
Format profile : Advanced Simple@L5
Format settings, BVOP : 1
Format settings, QPel : No
Format settings, GMC : No warppoints
Format settings, Matrix : Custom
Codec ID : XVID
Codec ID/Hint : XviD
Duration : 1h 35mn
Bit rate : 1 799 Kbps
Width : 720 pixels
Height : 432 pixels
Display aspect ratio : 1.667
Frame rate : 23.976 fps
Color space : YUV
Chroma subsampling : 4:2:0
Bit depth : 8 bits
Scan type : Progressive
Compression mode : Lossy
Bits/(Pixel*Frame) : 0.241
Stream size : 1.20 GiB (82%)
Writing library : XviD 73
Audio #1
ID : 1
Format : AC-3
Format/Info : Audio Coding 3
Mode extension : CM (complete main)
Codec ID : 2000
Duration : 1h 35mn
Bit rate mode : Constant
Bit rate : 384 Kbps
Channel(s) : 6 channels
Channel positions : Front: L C R, Side: L R, LFE
Sampling rate : 48.0 KHz
Bit depth : 16 bits
Compression mode : Lossy
Stream size : 262 MiB (18%)
Alignment : Split accross interleaves
Interleave, duration : 42 ms (1.00 video frame)
Interleave, preload duration : 500 ms




реклама партнёра


Вернуться к началу
 Профиль Отправить личное сообщение  
 
   Похожие торренты   Автор   Торрент   Размер 
В этой теме нет новых непрочитанных сообщений. Приключения раввина Якова / Les aventures de Rabbi Jacob [комедия, приключения, 1973] BDRip, Mvo

salma3

50 | 5

1.46 ГБ

В этой теме нет новых непрочитанных сообщений. Новые приключения Аладдина / Les nouvelles aventures d'Aladin [Комедия, 2015] HDRip, Dub [iTunes]

Dracon

2499 | 542

1.37 ГБ

В этой теме нет новых непрочитанных сообщений. Новые приключения Аладдина / Les nouvelles aventures d'Aladin [Комедия, 2015] BDRip 720p, dub [iTunes]

Dracon

639 | 47

4.66 ГБ

В этой теме нет новых непрочитанных сообщений. Jacob (Felipe Jacob) - Singles And EP's Collection (2012-2016) MP3

salma3

4 | 2

442.07 МБ

В этой теме нет новых непрочитанных сообщений. Дипломатический багаж / La Valise [комедия, приключения, 1973] BDRip 720p, Avo

salma3

47 | 4

3.6 ГБ

В этой теме нет новых непрочитанных сообщений. Дипломатический багаж / La Valise [комедия, приключения, 1973] BDRip 1080p, Avo

salma3

42 | 5

9.29 ГБ

В этой теме нет новых непрочитанных сообщений. Приключения Мортадело и Филимона / Mortadelo & Filemon - The Big Adventure [боевик, комедия, приключения, семейный, 2003] HDRip, Mvo [Лицензия]

salma3

49 | 8

1.45 ГБ


Начать новую тему Ответить на тему  [ 1 сообщение ] 




Для Мосгорсуда, Роскомнадзора и рекламодателей:: mosgorsud-torrent[собачка]yandex.ru