Торрент файл
скачать торрент магнет ссылка Добавлен: 09 окт 2013, 14:01
Размер: 1.49 ГБ
Сидеров: 183
Личеров: 18
Статус: (salma3)
Автор

СообщениеДобавлено: 09 окт 2013, 14:01 

В сети
Супермодератор
Аватара пользователя
Дата регистрации:
15 фев 2012, 16:44
Возраст: 27
Спасибо: 5136 / 2089
Сообщения: 17411
Войны орков / Orc Wars

Год выхода: 2013
Жанр: Боевик
Режиссер: Кол Гласс

В ролях: Расти Джойнер, Масьела Луша, Уэсли Джон, Айзек С. Синглтон мл., Маклейн Нельсон, Адам Джонсон, Клэр Нидерпрюэм, Джейк Ван Вагонер, Роки Майерс, Марк Броксмит

О фильме:
Спасаясь от армии орков, принцесса Алея открывает магический портал и попадает в наш мир. Однако и здесь кровожадные дикари продолжают её преследовать. К счастью, девушка находит себе защитника в лице бывшего морпеха Джона, который с помощью незнакомого оркам огнестрельного оружия, легко даёт отпор преследователям. Однако, когда те призывают к себе на помощь настоящего дракона, Джон понимает, что без помощи друзей и тяжелой техники здесь не обойтись...



Страна: США
Продолжительность: 01:37:27
Перевод: Профессиональный многоголосый [НТВ+]
Субтитры: Английские

Файл
Качество: BDRip-AVC
Формат файла: AVI
Видео кодек: XviD
Аудио кодек: AC3
Видео: MPEG-4 AVC, 1999 Кбит/с, 1024x576
Звук: AC3, 2 ch, 192 Кбит/с


Общее
Уникальный идентификатор : 215114024990943435578735782066841003076 (0xA1D57447AE73E502B1ED0874AED12444)
Полное имя : E:2Vojny.orkov.2013.x264.BDRip.(AVC).ExKinoRay.mkv
Формат : Matroska
Размер файла : 1,49 Гбайт
Продолжительность : 1 ч. 37 м.
Общий поток : 2191 Кбит/сек
Название фильма : Vojny.orkov.2013.x264.BDRip.(AVC).ExKinoRay
Дата кодирования : UTC 2013-10-09 06:30:56
Программа кодирования : mkvmerge v4.0.0 ('The Stars were mine') сборка от Jun 6 2010 16:18:42
Библиотека кодирования : libebml v1.0.0 + libmatroska v1.0.0

Видео
Идентификатор : 1
Формат : AVC
Формат/Информация : Advanced Video Codec
Профиль формата : High@L4.1
Параметр CABAC формата : Да
Параметр ReFrames формата : 8 кадров
Параметры GOP формата : M=9, N=27
Идентификатор кодека : V_MPEG4/ISO/AVC
Продолжительность : 1 ч. 37 м.
Битрейт : 1999 Кбит/сек
Ширина : 1024 пикс.
Высота : 576 пикс.
Соотношение сторон : 16:9
Частота кадров : 23,976 кадр/сек
Цветовое пространство : YUV
Подвыборка цветности : 4:2:0
Битовая глубина : 8 бит
Тип развёртки : Прогрессивная
Бит/(Пиксели*Кадры) : 0.141
Размер потока : 1,33 Гбайт (89%)
Заголовок : Rip by Enigma-Vladislav71
Библиотека кодирования : x264 core 129 r2245 bc13772
Настройки программы : cabac=1 / ref=8 / deblock=1:-2:-2 / analyse=0x3:0x133 / me=umh / subme=11 / psy=1 / psy_rd=1.00:0.00 / mixed_ref=1 / me_range=32 / chroma_me=1 / trellis=2 / 8x8dct=1 / cqm=0 / deadzone=21,11 / fast_pskip=0 / chroma_qp_offset=-2 / threads=3 / lookahead_threads=1 / sliced_threads=0 / nr=0 / decimate=0 / interlaced=0 / bluray_compat=0 / constrained_intra=0 / bframes=8 / b_pyramid=2 / b_adapt=2 / b_bias=0 / direct=3 / weightb=1 / open_gop=0 / weightp=2 / keyint=240 / keyint_min=23 / scenecut=40 / intra_refresh=0 / rc=2pass / mbtree=0 / bitrate=1999 / ratetol=1.0 / qcomp=0.60 / qpmin=10 / qpmax=51 / qpstep=4 / cplxblur=20.0 / qblur=0.5 / ip_ratio=1.40 / pb_ratio=1.30 / aq=2:1.00
Язык : English

Аудио
Идентификатор : 2
Формат : AC-3
Формат/Информация : Audio Coding 3
Расширение режима : CM (complete main)
Идентификатор кодека : A_AC3
Продолжительность : 1 ч. 37 м.
Вид битрейта : Постоянный
Битрейт : 192 Кбит/сек
Каналы : 2 канала
Расположение каналов : Front: L R
Частота : 48,0 КГц
Битовая глубина : 16 бит
Метод сжатия : С потерями
Размер потока : 134 Мбайт (9%)
Язык : Russian

Текст
Идентификатор : 3
Формат : UTF-8
Идентификатор кодека : S_TEXT/UTF8
Идентификатор кодека/Информация : UTF-8 Plain Text
Язык : English

Релиз от: Авторы релиза:




реклама партнёра


Вернуться к началу
 Профиль Отправить личное сообщение  
 
   Похожие торренты   Автор   Торрент   Размер 
В этой теме нет новых непрочитанных сообщений. Библиотечные войны / Toshokan sensô / Library Wars [боевик, драма, 2013] BDRip 720p, dvo

Dracon

15 | 4

5.63 ГБ

В этой теме нет новых непрочитанных сообщений. Лос-Анджелесские войны / Войны Лос-Анджелеса / L.A. Wars [боевик, 1994] VHSRip, Avo

salma3

3 | 3

1.13 ГБ

В этой теме нет новых непрочитанных сообщений. Последний друид: Войны гармов / Garm Wars: The Last Druid [фантастика, боевик, триллер, 2014] BDRip 720p, Dvo

salma3

284 | 23

3.56 ГБ

В этой теме нет новых непрочитанных сообщений. Звёздные войны: Пробуждение силы / Star Wars: Episode VII - The Force Awakens [фантастика, приключения, боевик, 2015] BDRip-AVC, Dub [чистый звук]

salma3

73 | 1

2.73 ГБ

В этой теме нет новых непрочитанных сообщений. Звёздные войны: Пробуждение силы / Star Wars: Episode VII - The Force Awakens (фантастика, фэнтези, боевик, приключения, 2015) BDRip-AVC от HELLYWOOD | Лицензия

marya111

337 | 27

2.91 ГБ

В этой теме нет новых непрочитанных сообщений. Звёздные войны: Пробуждение силы / Star Wars: Episode VII - The Force Awakens (фантастика, фэнтези, боевик, приключения, 2015) BDRip 720p от HELLYWOOD | Лицензия, P, A

marya111

56 | 16

7.95 ГБ

В этой теме нет новых непрочитанных сообщений. Звёздные войны: Пробуждение силы / Star Wars: Episode VII - The Force Awakens [фантастика, фэнтези, боевик, приключения, 2015] BDRip 1080p, Dub [чистый звук]

salma3

1972 | 68

15.83 ГБ


Начать новую тему Ответить на тему  [ 1 сообщение ] 




Для Мосгорсуда, Роскомнадзора и рекламодателей:: mosgorsud-torrent[собачка]yandex.ru