Торрент файл
скачать торрент магнет ссылка Добавлен: 07 окт 2013, 14:53
Размер: 1.79 ГБ
Сидеров: 40
Личеров: 4
Статус: (salma3)
Автор

СообщениеДобавлено: 07 окт 2013, 14:53 

Не в сети
Зам. Админа
Аватара пользователя
Дата регистрации:
02 дек 2010, 12:39
Спасибо: 12461 / 214
Сообщения: 27968
Год выхода: 2013
Жанр: Драма
Режиссер: Стивен Фрирз
В ролях: Пабло Шрайбер, Кристофер Пламмер, Дэнни Гловер, Бенджамин Уокер, Фрэнк Ланджелла, Барри Левинсон, Эд Бегли мл., Боб Бэлабан, Мухаммед Али, Дэна Айви

О фильме:
На пике карьеры Мохаммеда Али собираются отправить воевать во Вьетнам. Его отказ от службы в американской армии по религиозным соображениям порождает беспрецедентную юридическую битву, в которую оказалась вовлечена высшая судебная инстанция США — Верховный суд. Уважаемый судья Харлан обнаруживает, что с его точкой зрения на проблему не согласен недавно присоединившийся к его кабинету молодой юрист Конноли. Ему приходится убеждать остальных восемь судей, в том числе и главного судью, назначенного президентом Никсоном, пересмотреть вопрос о виновности Мохаммеда Али.


Страна: США
Студия: HBO Films, Rainmark Films
Продолжительность: 01:34:03
Перевод: Профессиональный многоголосый

Кодек: MPEG-4 AVC
Качество: HDTVRip (AVC)
Видео: 2150 Кбит/с, 1024x576, 25.000 кадр/с
Звук:
Аудио #1: Русский (АС3, 6 ch, 384 Кбит/с)
Аудио #2: Английский (AC3, 2 ch, 192 Кбит/с)

Семпл


Общее
Полное имя : Glavnyj.boj.Muxammeda.Ali.2013.x264.HDTVRip(AVC).MediaClub.mkv
Формат : Matroska
Версия формата : Version 2
Размер файла : 1,79 Гбайт
Продолжительность : 1 ч. 34 м.
Общий поток : 2725 Кбит/сек
Дата кодирования : UTC 2013-10-07 10:04:51
Программа кодирования : mkvmerge v5.4.0 ('Piper') built on Mar 10 2012 13:34:39
Библиотека кодирования : libebml v1.2.3 + libmatroska v1.3.0

Видео
Идентификатор : 1
Формат : AVC
Формат/Информация : Advanced Video Codec
Профиль формата : High@L4.1
Параметр CABAC формата : Да
Параметр ReFrames формата : 9 кадров
Идентификатор кодека : V_MPEG4/ISO/AVC
Продолжительность : 1 ч. 34 м.
Битрейт : 2150 Кбит/сек
Ширина : 1024 пикселя
Высота : 576 пикселей
Соотношение сторон : 16:9
Режим частоты кадров : Постоянный
Частота кадров : 25,000 кадров/сек
Цветовое пространство : YUV
Субдискретизация насыщенности : 4:2:0
Битовая глубина : 8 бит
Тип развёртки : Прогрессивная
Бит/(Пиксели*Кадры) : 0.146
Размер потока : 1,38 Гбайт (77%)
Библиотека кодирования : x264 core 125 r2208 d9d2288
Настройки программы : cabac=1 / ref=9 / deblock=1:-2:-2 / analyse=0x3:0x133 / me=umh / subme=10 / psy=1 / psy_rd=1.00:0.15 / mixed_ref=1 / me_range=32 / chroma_me=1 / trellis=2 / 8x8dct=1 / cqm=0 / deadzone=21,11 / fast_pskip=0 / chroma_qp_offset=-3 / threads=6 / lookahead_threads=1 / sliced_threads=0 / nr=0 / decimate=0 / interlaced=0 / bluray_compat=0 / constrained_intra=0 / bframes=8 / b_pyramid=2 / b_adapt=2 / b_bias=0 / direct=3 / weightb=1 / open_gop=0 / weightp=2 / keyint=250 / keyint_min=25 / scenecut=40 / intra_refresh=0 / rc=2pass / mbtree=0 / bitrate=2150 / ratetol=1.0 / qcomp=0.60 / qpmin=0 / qpmax=69 / qpstep=4 / cplxblur=20.0 / qblur=0.5 / ip_ratio=1.40 / pb_ratio=1.30 / aq=1:0.80
Default : Да
Forced : Нет

Аудио #1
Идентификатор : 2
Формат : AC-3
Формат/Информация : Audio Coding 3
Расширение режима : CM (complete main)
Параметр Endianness формата : Big
Идентификатор кодека : A_AC3
Продолжительность : 1 ч. 34 м.
Вид битрейта : Постоянный
Битрейт : 384 Кбит/сек
Каналы : 6 каналов
Расположение каналов : Front: L C R, Side: L R, LFE
Частота : 48,0 КГц
Битовая глубина : 16 бит
Метод сжатия : С потерями
Размер потока : 259 Мбайт (14%)
Язык : Russian
Default : Да
Forced : Нет

Аудио #2
Идентификатор : 3
Формат : AC-3
Формат/Информация : Audio Coding 3
Расширение режима : CM (complete main)
Параметр Endianness формата : Big
Идентификатор кодека : A_AC3
Продолжительность : 1 ч. 34 м.
Вид битрейта : Постоянный
Битрейт : 192 Кбит/сек
Каналы : 2 канала
Расположение каналов : Front: L R
Частота : 48,0 КГц
Битовая глубина : 16 бит
Метод сжатия : С потерями
Размер потока : 129 Мбайт (7%)
Язык : English
Default : Нет
Forced : Нет


Релиз от:




реклама партнёра


Вернуться к началу
 Профиль  
 
   Похожие торренты   Автор   Торрент   Размер 
В этой теме нет новых непрочитанных сообщений. Главный [история, драма, 2015] WEBRip

Dracon

3216 | 179

1.37 ГБ

В этой теме нет новых непрочитанных сообщений. Achillea - Fight or Fall [2013, Melodic Power Metal, MP3]

PriZraK

0 | 1

120.24 МБ

В этой теме нет новых непрочитанных сообщений. Уничтожение / Raze - Fight or Die [ужасы, боевик, 2013] BDRip 720p, Dvo+Sub

salma3

42 | 8

3.69 ГБ

В этой теме нет новых непрочитанных сообщений. Уничтожение / Raze - Fight or Die [ужасы, боевик, 2013] BDRip 1080p, Dvo+Sub

salma3

27 | 6

7.31 ГБ

В этой теме нет новых непрочитанных сообщений. Cross Covenant - Learning to Fight [2013, Melodic Hard Rock, MP3]

PriZraK

0 | 1

128.14 МБ

В этой теме нет новых непрочитанных сообщений. Small Town Titans - From Fight to Flight [2013, Modern Hard Rock, MP3]

PriZraK

0 | 2

101.01 МБ

В этой теме нет новых непрочитанных сообщений. Fight Or Flight - A Life By Design? (Deluxe Edition) [2013, Alternative Metal, Hard Rock, MP3]

PriZraK

0 | 1

113.02 МБ


Начать новую тему Ответить на тему  [ 1 сообщение ] 




Для Мосгорсуда, Роскомнадзора и рекламодателей:: mosgorsud-torrent[собачка]yandex.ru