Торрент файл
скачать торрент магнет ссылка Добавлен: 05 окт 2013, 13:12
Размер: 3.6 ГБ
Сидеров: 238
Личеров: 6
Автор

СообщениеДобавлено: 05 окт 2013, 13:12 

Не в сети
Зам. Админа
Аватара пользователя
Дата регистрации:
02 дек 2010, 12:39
Спасибо: 12461 / 214
Сообщения: 27968
Год выпуска: 2013
Жанр: Приключения, фантастика, вестерн, боевик
Выпущено: США, Blind Wink Productions, Classic Media, Infinitum Nihil Production, Jerry Bruckheimer Films
Режиссер: Гор Вербински
В ролях: Джонни Депп, Хелена Бонем Картер, Арми Хаммер, Уильям Фихтнер, Том Уилкинсон, Бэрри Пеппер, Джеймс Бэдж Дэйл, Рут Уилсон, Мэйсон Кук, Мэтт О`Лири
О фильме: История блюстителя закона Джона Рейда, который с помощью индейца Тонто стал легендарным мстителем в маске, стоящим на защите справедливости. Тонто с юмором и небылицами повествует о тех приключениях, которые пришлось пережить двум непохожим друг на друга героям, сведенным судьбой для того чтобы вместе сражаться против общего врага. Им приходится противостоять жадности и коррупции во времена, когда появление первых железных дорог изменило представление о власти и могуществе в мире.

Качество: BDRip (AVC)
Видео: MPEG-4 AVC, 2550 Кбит/с, 1024x426, 23.976 кадр/с
Аудио: Русский, английский (AC3, 6 ch, 448 Кбит/с)
Размер: 3.6 ГБ
Продолжительность: 02:29:33
Перевод: Дублированный
Субтитры: Русские, английские

Семпл
Общее
Уникальный идентификатор : 181067004030770028417432586861669181511 (0x88383C8B4931E2179A72E335E5AEE847)
Полное имя : D:DownloadsThe.Lone.Ranger.2013.x264.BDRip.(AVC).ExKinoRay.mkv
Формат : Matroska
Версия формата : Version 2
Размер файла : 3,60 Гбайт
Продолжительность : 2 ч. 29 м.
Общий поток : 3445 Кбит/сек
Название фильма : Одинокий рейнджер. 2013. Rip by: ollan
Дата кодирования : UTC 2013-10-03 16:26:41
Программа кодирования : mkvmerge v5.6.0 ('Kenya Kane') built on May 27 2012 16:44:04
Библиотека кодирования : libebml v1.2.3 + libmatroska v1.3.0

Видео
Идентификатор : 1
Формат : AVC
Формат/Информация : Advanced Video Codec
Профиль формата : High@L4.1
Параметр CABAC формата : Да
Параметр ReFrames формата : 9 кадров
Идентификатор кодека : V_MPEG4/ISO/AVC
Продолжительность : 2 ч. 29 м.
Битрейт : 2550 Кбит/сек
Ширина : 1024 пикселя
Высота : 426 пикселей
Соотношение сторон : 2,40:1
Режим частоты кадров : Постоянный
Частота кадров : 23,976 кадра/сек
Цветовое пространство : YUV
Субдискретизация насыщенности : 4:2:0
Битовая глубина : 8 бит
Тип развёртки : Прогрессивная
Бит/(Пиксели*Кадры) : 0.244
Размер потока : 2,59 Гбайт (72%)
Библиотека кодирования : x264 core 125 r2200 999b753
Настройки программы : cabac=1 / ref=9 / deblock=1:-2:-2 / analyse=0x3:0x133 / me=umh / subme=11 / psy=1 / psy_rd=1.00:0.10 / mixed_ref=1 / me_range=32 / chroma_me=1 / trellis=2 / 8x8dct=1 / cqm=0 / deadzone=21,11 / fast_pskip=0 / chroma_qp_offset=-3 / threads=12 / lookahead_threads=2 / sliced_threads=0 / nr=0 / decimate=0 / interlaced=0 / bluray_compat=0 / constrained_intra=0 / bframes=9 / b_pyramid=2 / b_adapt=2 / b_bias=0 / direct=3 / weightb=1 / open_gop=0 / weightp=2 / keyint=240 / keyint_min=23 / scenecut=40 / intra_refresh=0 / rc_lookahead=80 / rc=2pass / mbtree=1 / bitrate=2550 / ratetol=1.0 / qcomp=0.60 / qpmin=0 / qpmax=69 / qpstep=4 / cplxblur=20.0 / qblur=0.5 / vbv_maxrate=5000 / vbv_bufsize=5000 / nal_hrd=none / ip_ratio=1.40 / aq=1:1.00
Default : Да
Forced : Нет

Аудио #1
Идентификатор : 2
Формат : AC-3
Формат/Информация : Audio Coding 3
Расширение режима : CM (complete main)
Параметр Endianness формата : Big
Идентификатор кодека : A_AC3
Продолжительность : 2 ч. 29 м.
Вид битрейта : Постоянный
Битрейт : 448 Кбит/сек
Каналы : 6 каналов
Расположение каналов : Front: L C R, Side: L R, LFE
Частота : 48,0 КГц
Битовая глубина : 16 бит
Метод сжатия : С потерями
Размер потока : 479 Мбайт (13%)
Заголовок : Дублированный (лицензия)
Default : Да
Forced : Да

Аудио #2
Идентификатор : 3
Формат : AC-3
Формат/Информация : Audio Coding 3
Расширение режима : CM (complete main)
Параметр Endianness формата : Big
Идентификатор кодека : A_AC3
Продолжительность : 2 ч. 29 м.
Вид битрейта : Постоянный
Битрейт : 448 Кбит/сек
Каналы : 6 каналов
Расположение каналов : Front: L C R, Side: L R, LFE
Частота : 48,0 КГц
Битовая глубина : 16 бит
Метод сжатия : С потерями
Размер потока : 479 Мбайт (13%)
Default : Нет
Forced : Нет

Текст #1
Идентификатор : 4
Формат : UTF-8
Идентификатор кодека : S_TEXT/UTF8
Идентификатор кодека/Информация : UTF-8 Plain Text
Заголовок : Forced
Язык : Russian
Default : Да
Forced : Нет

Текст #2
Идентификатор : 5
Формат : UTF-8
Идентификатор кодека : S_TEXT/UTF8
Идентификатор кодека/Информация : UTF-8 Plain Text
Язык : Russian
Default : Нет
Forced : Нет

Текст #3
Идентификатор : 6
Формат : UTF-8
Идентификатор кодека : S_TEXT/UTF8
Идентификатор кодека/Информация : UTF-8 Plain Text
Заголовок : Forced
Язык : English
Default : Нет
Forced : Нет

Текст #4
Идентификатор : 7
Формат : UTF-8
Идентификатор кодека : S_TEXT/UTF8
Идентификатор кодека/Информация : UTF-8 Plain Text
Заголовок : SDH
Язык : English
Default : Нет
Forced : Нет

Меню
00:00:00.000 : en:00:00:00.000
00:08:16.121 : en:00:08:16.121
00:13:38.776 : en:00:13:38.776
00:24:51.407 : en:00:24:51.407
00:29:03.033 : en:00:29:03.033
00:32:05.841 : en:00:32:05.841
00:40:32.013 : en:00:40:32.013
00:45:29.644 : en:00:45:29.644
00:53:29.665 : en:00:53:29.665
01:01:05.662 : en:01:01:05.662
01:10:01.614 : en:01:10:01.614
01:16:12.318 : en:01:16:12.318
01:24:45.455 : en:01:24:45.455
01:28:39.731 : en:01:28:39.731
01:35:35.188 : en:01:35:35.188
01:41:13.985 : en:01:41:13.985
01:46:35.806 : en:01:46:35.806
01:50:02.179 : en:01:50:02.179
01:53:55.203 : en:01:53:55.203
01:56:15.260 : en:01:56:15.260
02:01:51.095 : en:02:01:51.095
02:12:07.211 : en:02:12:07.211
02:17:13.934 : en:02:17:13.934
02:20:20.287 : en:02:20:20.287






Релиз от: Rip by:




реклама партнёра


Вернуться к началу
 Профиль  
 
   Похожие торренты   Автор   Торрент   Размер 
В этой теме нет новых непрочитанных сообщений. Одинокий рейнджер / The Lone Ranger [Приключения, фантастика, вестерн, боевик, 2013] HDRip 520p, Dub [Лицензия]

Dracon

13 | 3

3.54 ГБ

В этой теме нет новых непрочитанных сообщений. Одинокий волк МакКуэйд / Lone Wolf McQuade [Боевик, 1983] BDRip 1080p, Mvo

salma3

67 | 50

12.06 ГБ

В этой теме нет новых непрочитанных сообщений. Одинокий волк МакКуэйд / Lone Wolf McQuade [боевик, драма, криминал, 1983] BDRip 720р, Mvo+Sub

salma3

21 | 6

7.99 ГБ

В этой теме нет новых непрочитанных сообщений. Уцелевший / Lone Survivor [боевик, триллер, драма, военный, 2013] BDRip 720p, Dub [Лицензия]

Dracon

209 | 117

4.02 ГБ

В этой теме нет новых непрочитанных сообщений. Уцелевший / Lone Survivor [боевик, триллер, драма, военный, 2013] BDRip 1080p, Dub [Лицензия]

Dracon

122 | 13

9.71 ГБ

В этой теме нет новых непрочитанных сообщений. Уцелевший / Lone Survivor [боевик, триллер, драма, военный, 2013] Blu-Ray 1080p, Dub+Sub [Лицензия]

Dracon

26 | 4

26.46 ГБ

В этой теме нет новых непрочитанных сообщений. Уцелевший / Lone Survivor [боевик, триллер, драма, военный, 2013] HDRip, Dub [Лицензия]

Dracon

242 | 5

2.05 ГБ


Начать новую тему Ответить на тему  [ 1 сообщение ] 




Для Мосгорсуда, Роскомнадзора и рекламодателей:: mosgorsud-torrent[собачка]yandex.ru