Торрент файл
скачать торрент магнет ссылка Добавлен: 03 окт 2013, 23:18
Размер: 1.45 ГБ
Сидеров: 13
Личеров: 13
Статус: (salma3)
Автор

СообщениеДобавлено: 03 окт 2013, 23:18 

Не в сети
Супермодератор
Аватара пользователя
Дата регистрации:
15 фев 2012, 16:44
Возраст: 27
Спасибо: 5135 / 2089
Сообщения: 17406
Суровая страна / Hard Country

Год выхода: 1981
Жанр: драма, вестерн
Режиссер: Дэвид Грин / David Greene

В ролях: Ян-Майкл Винсент, Ким Бейсингер, Майкл Паркс, Гейлард Сартейн, Сьерра Пешёр, Джон Чэппел, Таня Такер, Дэрил Ханна, Льюис Ван Берген, Тед Нили...

О фильме:
Кайл Ричардсон работает на бесперспективной работе — на маленькой фабрике в центре Техаса. По уик-эндам он вместе с приятелями любит смотреть старые фильмы в местном салуне. Его пьянство сказывается на его отношениях с его девушкой Джоди Линн Палмер.
Наконец Джоди ставит ультиматум: или он успокоится и женится на ней, или она переедет в Калифорнию, где попробует начать карьеру певицы в стиле кантри-энд-вестерн.




Страна: США
Продолжительность: 01:37:19
Перевод: Профессиональный (многоголосый, закадровый)

Файл
Качество: DVDRip
Формат файла: AVI
Видео кодек: XviD
Аудио кодек: AC3
Видео: 720x432 (1,667:1), 25 fps, XviD ~ 1746 kbps avg, 0.225 bit/pixel
Аудио: 48 kHz, Dolby AC3 5.1, 384 kbps




Общее
Полное имя : Surovaya.strana.1981.DVDRip_[Youtracker]_by_AVP Studio.avi
Формат : AVI
Формат/Информация : Audio Video Interleave
Размер файла : 1,45 Гбайт
Продолжительность : 1 ч. 37 м.
Общий поток : 2140 Кбит/сек
Программа кодирования : VirtualDubModRus 1.5.10.2 (build 2542/release)
Библиотека кодирования : VirtualDubMod build 2542/release

Видео
Идентификатор : 0
Формат : MPEG-4 Visual
Профиль формата : Advanced Simple@L5
Параметр BVOP формата : 1
Параметр QPel формата : Нет
Параметр GMC формата : Без точки перехода
Параметр матрицы формата : Выборочная
Идентификатор кодека : XVID
Идентификатор кодека/Подсказка : XviD
Продолжительность : 1 ч. 37 м.
Битрейт : 1746 Кбит/сек
Ширина : 720 пикселей
Высота : 432 пикселя
Соотношение сторон : 1,667
Частота кадров : 25,000 кадров/сек
Цветовое пространство : YUV
Субдискретизация насыщенности : 4:2:0
Битовая глубина : 8 бит
Тип развёртки : Прогрессивная
Метод сжатия : С потерями
Бит/(Пиксели*Кадры) : 0.225
Размер потока : 1,19 Гбайт (82%)
Библиотека кодирования : XviD 65

Аудио
Идентификатор : 1
Формат : AC-3
Формат/Информация : Audio Coding 3
Расширение режима : CM (complete main)
Идентификатор кодека : 2000
Продолжительность : 1 ч. 37 м.
Вид битрейта : Постоянный
Битрейт : 384 Кбит/сек
Каналы : 6 каналов
Расположение каналов : Front: L C R, Side: L R, LFE
Частота : 48,0 КГц
Битовая глубина : 16 бит
Метод сжатия : С потерями
Размер потока : 267 Мбайт (18%)
Выравнивание : Разделение по промежуткам
Продолжительность промежутка : 40 мс. (1,00 видеокадр)
Время предзагрузки промежутка : 500 мс

Раздача от:




реклама партнёра


Вернуться к началу
 Профиль Отправить личное сообщение  
 
   Похожие торренты   Автор   Торрент   Размер 
В этой теме нет новых непрочитанных сообщений. Счастливая страна / Lucky Country [Триллер, драма, вестерн, история, 2009] WEB-DLRip, Dvo

salma3

32 | 4

1.47 ГБ

В этой теме нет новых непрочитанных сообщений. Бадди едет на запад / Buddy goes west [Вестерн, комедия, 1981] DVDRip, Avo

salma3

12 | 5

1.38 ГБ

В этой теме нет новых непрочитанных сообщений. Mutagen - Суровая Реальность Обыденной Жизни [2010, Punk, MP3]

PriZraK

0 | 1

101.78 МБ

В этой теме нет новых непрочитанных сообщений. В стране / In Country [Драма, мелодрама, комедия, военный, 1989] DVDRip, Dvo

salma3

14 | 4

1.45 ГБ

В этой теме нет новых непрочитанных сообщений. Black Country Communion - Afterglow [2012, Hard Rock, Blues Rock, MP3]

PriZraK

1 | 2

133.18 МБ

В этой теме нет новых непрочитанных сообщений. Rain - Mexican Way [2013,Hard Rock,Acoustic Rock,Country,MP3]

PriZraK

0 | 1

114.02 МБ

В этой теме нет новых непрочитанных сообщений. Bourbon Boys - Shotguns, Trucks & Cattle [2013,Hard Rock,Rock-n-Roll,Country,MP3]

PriZraK

0 | 1

94.08 МБ


Начать новую тему Ответить на тему  [ 1 сообщение ] 




Для Мосгорсуда, Роскомнадзора и рекламодателей:: mosgorsud-torrent[собачка]yandex.ru