Торрент файл
скачать торрент магнет ссылка Добавлен: 30 сен 2013, 23:09
Размер: 1.45 ГБ
Сидеров: 5
Личеров: 2
Статус: (salma3)
Автор

СообщениеДобавлено: 30 сен 2013, 23:09 

В сети
Супермодератор
Аватара пользователя
Дата регистрации:
15 фев 2012, 16:44
Возраст: 28
Спасибо: 6565 / 2130
Сообщения: 43729
Кровавый четверг / Thursday

Год выхода: 1998
Жанр: боевик, триллер, драма, криминал
Режиссер: Скип Вудс

В ролях: Томас Джейн, Аарон Экхарт, Паулина Поризкова, Джеймс ЛеГрос, Пола Маршалл, Майкл Джитер, Гленн Пламмер, Микки Рурк, Люк Хари, Бари К. Уиллерфорд

О фильме:
Бывший торговец наркотиками, прошедший через все круги ада, решает выйти на пенсию и забыть о своём тёмном прошлом. Переехав из Лос-Анджелеса в Хьюстон, он резко меняет свой имидж и в глазах окружающих становится обыкновенным гражданином, которого трудно заподозрить в чём-либо криминальном. Однако судьба готовит очередной, самый неожиданный сюрприз бывшему наркодилеру. В город приезжает его подельник с грузом героина. Компаньон и не думал забывать о своём партнёре всё то время, пока тот строил свою новую жизнь. Он предлагает ему последнюю сделку. За всё однажды приходится платить, и бывший наркоделец оказывается на волосок от смерти.




Страна: США
Продолжительность: 01:27:47
Перевод: Профессиональный (многоголосый закадровый), Оригинал (Английский)

Файл
Качество: BDRip-AVC
Формат файла: AVC
Видео кодек: х.264
Аудио кодек: AC3
Видео: 960х512 (1,85:1), 23,976 fps, 1599 kbps, 0.136 bit/pixel
Аудио #1: 48 kHz, AC3 Dolby Digital, 6 ch, ~384.00 kbps [Русский]
Аудио #2: 48 kHz, AC3 Dolby Digital, 6 ch, ~384.00 kbps [Английский]
Субтитры: Русские, Английские (отключаемые)


Общее
Уникальный идентификатор : 245175374769929088865538493639492568895 (0xB8730F4143341203B63D19D378A7073F)
Полное имя : D:Thursday.1998.BDRip-AVC.mkv
Формат : Matroska
Версия формата : Version 4 / Version 2
Размер файла : 1,45 Гбайт
Продолжительность : 1 ч. 27 м.
Общий поток : 2370 Кбит/сек
Название фильма : Кровавый четверг / Thursday (1998) BDRip-AVC rip by Rulya74
Дата кодирования : UTC 2013-09-30 04:10:41
Программа кодирования : mkvmerge v6.2.0 ('Promised Land') built on Apr 28 2013 12:22:01
Библиотека кодирования : libebml v1.3.0 + libmatroska v1.4.0
Attachment : Yes

Видео
Идентификатор : 1
Формат : AVC
Формат/Информация : Advanced Video Codec
Профиль формата : High@L4.1
Параметр CABAC формата : Да
Параметр ReFrames формата : 7 кадров
Идентификатор кодека : V_MPEG4/ISO/AVC
Продолжительность : 1 ч. 27 м.
Битрейт : 1599 Кбит/сек
Ширина : 960 пикселей
Высота : 512 пикселей
Соотношение сторон : 1,85:1
Режим частоты кадров : Постоянный
Частота кадров : 23,976 кадра/сек
Цветовое пространство : YUV
Субдискретизация насыщенности : 4:2:0
Битовая глубина : 8 бит
Тип развёртки : Прогрессивная
Бит/(Пиксели*Кадры) : 0.136
Размер потока : 976 Мбайт (66%)
Библиотека кодирования : x264 core 133 r2334 a3ac64b
Настройки программы : cabac=1 / ref=7 / deblock=1:-3:-3 / analyse=0x3:0x113 / me=umh / subme=9 / psy=1 / psy_rd=1.02:0.12 / mixed_ref=1 / me_range=32 / chroma_me=1 / trellis=2 / 8x8dct=1 / cqm=0 / deadzone=21,11 / fast_pskip=0 / chroma_qp_offset=-3 / threads=2 / lookahead_threads=1 / sliced_threads=0 / nr=0 / decimate=1 / interlaced=0 / bluray_compat=0 / constrained_intra=0 / bframes=5 / b_pyramid=2 / b_adapt=1 / b_bias=0 / direct=3 / weightb=1 / open_gop=0 / weightp=2 / keyint=240 / keyint_min=23 / scenecut=40 / intra_refresh=0 / rc_lookahead=40 / rc=2pass / mbtree=1 / bitrate=1599 / ratetol=1.0 / qcomp=0.60 / qpmin=10 / qpmax=69 / qpstep=4 / cplxblur=20.0 / qblur=0.5 / vbv_maxrate=62500 / vbv_bufsize=78125 / nal_hrd=none / ip_ratio=1.40 / aq=2:1.00
Default : Да
Forced : Нет

Аудио #1
Идентификатор : 2
Формат : AC-3
Формат/Информация : Audio Coding 3
Расширение режима : CM (complete main)
Параметр Endianness формата : Big
Идентификатор кодека : A_AC3
Продолжительность : 1 ч. 27 м.
Вид битрейта : Постоянный
Битрейт : 384 Кбит/сек
Каналы : 6 каналов
Расположение каналов : Front: L C R, Side: L R, LFE
Частота : 48,0 КГц
Битовая глубина : 16 бит
Метод сжатия : С потерями
Размер потока : 241 Мбайт (16%)
Заголовок : Профессиональный (многоголосый закадровый)
Язык : Russian
Default : Да
Forced : Нет

Аудио #2
Идентификатор : 3
Формат : AC-3
Формат/Информация : Audio Coding 3
Расширение режима : CM (complete main)
Параметр Endianness формата : Big
Идентификатор кодека : A_AC3
Продолжительность : 1 ч. 27 м.
Вид битрейта : Постоянный
Битрейт : 384 Кбит/сек
Каналы : 6 каналов
Расположение каналов : Front: L C R, Side: L R, LFE
Частота : 48,0 КГц
Битовая глубина : 16 бит
Метод сжатия : С потерями
Размер потока : 241 Мбайт (16%)
Заголовок : Оригинал
Язык : English
Default : Нет
Forced : Нет

Текст #1
Идентификатор : 4
Формат : UTF-8
Идентификатор кодека : S_TEXT/UTF8
Идентификатор кодека/Информация : UTF-8 Plain Text
Язык : Russian
Default : Нет
Forced : Нет

Текст #2
Идентификатор : 5
Формат : UTF-8
Идентификатор кодека : S_TEXT/UTF8
Идентификатор кодека/Информация : UTF-8 Plain Text
Язык : English
Default : Нет
Forced : Нет

Меню
00:00:00.000 : en:Chapter 1
00:05:18.318 : en:Chapter 2
00:12:42.970 : en:Chapter 3
00:17:10.029 : en:Chapter 4
00:22:43.362 : en:Chapter 5
00:27:42.494 : en:Chapter 6
00:33:41.019 : en:Chapter 7
00:38:28.139 : en:Chapter 8
00:43:30.316 : en:Chapter 9
00:49:01.939 : en:Chapter 10
00:55:13.310 : en:Chapter 11
00:59:53.298 : en:Chapter 12
01:05:45.232 : en:Chapter 13
01:10:38.067 : en:Chapter 14
01:17:07.998 : en:Chapter 15
01:22:45.961 : en:Chapter 16

&




реклама партнёра


Вернуться к началу
 Профиль Отправить личное сообщение  
 
   Похожие торренты   Автор   Торрент   Размер 
В этой теме нет новых непрочитанных сообщений. Черный пес / Black Dog [боевик, триллер, драма, криминал, 1998] BDRip, Mvo

salma3

84 | 10

1.46 ГБ

В этой теме нет новых непрочитанных сообщений. Чёрный пёс / Black Dog [боевик, триллер, драма, криминал, 1998] BDRip 720p, Mvo+Dvo+Avo+Sub

salma3

40 | 31

5.7 ГБ

В этой теме нет новых непрочитанных сообщений. Осада / The Siege [боевик, триллер, драма, криминал, 1998] BDRip 1080p, Dub

salma3

60 | 49

7.76 ГБ

В этой теме нет новых непрочитанных сообщений. Ливень / Hard Rain [боевик, триллер, драма, криминал, 1998] BDRip, Dub

salma3

69 | 21

1.46 ГБ

В этой теме нет новых непрочитанных сообщений. Ронин / Ronin [Боевик, триллер, криминал, 1998] BDRip, Dub [Remastered]

salma3

85 | 20

1.46 ГБ

В этой теме нет новых непрочитанных сообщений. Ронин / Ronin [боевик, триллер, криминал, 1998] BDRip 720p, Dub [Remastered]

salma3

19 | 12

14.47 ГБ

В этой теме нет новых непрочитанных сообщений. Переговорщик / The Negotiator [триллер, боевик, криминал, детектив, 1998] BDRip 1080р, Dub

salma3

5 | 25

16.5 ГБ


Начать новую тему Ответить на тему  [ 1 сообщение ] 




Для Мосгорсуда, Роскомнадзора и рекламодателей:: mosgorsud-torrent[собачка]yandex.ru