Торрент файл
скачать торрент магнет ссылка Добавлен: 27 сен 2013, 20:39
Размер: 2.17 ГБ
Сидеров: 288
Личеров: 18
Автор

СообщениеДобавлено: 27 сен 2013, 20:39 

Не в сети
Зам. Админа
Аватара пользователя
Дата регистрации:
02 дек 2010, 12:39
Спасибо: 12623 / 214
Сообщения: 28012


Год выпуска: 2013
Жанр: Боевик, триллер
Выпущено: США, IM Global, Shoebox Films
Режиссер: Стивен Найт
В ролях: Джейсон Стэйтем, Агата Бузек, Вики МакКлюр, Бенедикт Вонг, Ли Асквит-Коу, Ли Николас Харрис, Крис Коулин, Санти Скинелли, Дэвид Брэдли (III), Шиван Хьюлетт

О фильме: Джон Смит - бывший коммандос. Во время выполнения спецзадания в Афганистане, предупреждение о засаде через беспилотник "Колибри" поступило слишком поздно. Вся его группа была уничтожена. Ослеплённый болью утраты, Джон убил столько же первых попавшихся афганцев. Но когда он осознал свой поступок, рассудок его не выдержал. Стая птиц колибри, погибшие товарищи и казнённые им невинные афганцы начали преследовать его в снах и галлюцинациях. Тем не менее, Джон сбежал из госпиталя, сразу растворившись на самом "дне" лондонской жизни. Он не желал выздоравливать, потому что больше никого не хотел убивать. Но оказалось, что голод и поиск ночлега, это лишь малые беды бездомных, их главный ужас - жестокий рэкет, обиравший "до нитки" и безраздельно решавший их право на жизнь. И снова надо мстить. И снова понадобилось Джону его ремесло - совершенное умение убивать...

Качество: BDRip (AVC)
Видео: MPEG-4 AVC, 2210 Кбит/с, 1024x576, 23.976 кадр/с
Аудио: Русский, английский (AC3, 6 ch, 448 Кбит/с)
Размер: 2.17 ГБ
Продолжительность: 01:40:02
Перевод: Дублированный
Субтитры: Aнглийские
Общее
Уникальный идентификатор : 193241696662776090592341636717770303938 (0x9160FF3C17ED7D8CBD4495F4386DE9C2)
Полное имя : D:DownloadsHummingbird.2013.x264.BDRip.(AVC).ExKinoRay.mkv
Формат : Matroska
Версия формата : Version 2
Размер файла : 2,17 Гбайт
Продолжительность : 1 ч. 40 м.
Общий поток : 3102 Кбит/сек
Название фильма : Эффект колибри. 2013. Rip by: ollan
Дата кодирования : UTC 2013-09-27 10:40:30
Программа кодирования : mkvmerge v5.6.0 ('Kenya Kane') built on May 27 2012 16:44:04
Библиотека кодирования : libebml v1.2.3 + libmatroska v1.3.0

Видео
Идентификатор : 1
Формат : AVC
Формат/Информация : Advanced Video Codec
Профиль формата : High@L4.1
Параметр CABAC формата : Да
Параметр ReFrames формата : 9 кадров
Идентификатор кодека : V_MPEG4/ISO/AVC
Продолжительность : 1 ч. 40 м.
Битрейт : 2210 Кбит/сек
Ширина : 1024 пикселя
Высота : 576 пикселей
Соотношение сторон : 16:9
Режим частоты кадров : Постоянный
Частота кадров : 23,976 кадра/сек
Цветовое пространство : YUV
Субдискретизация насыщенности : 4:2:0
Битовая глубина : 8 бит
Тип развёртки : Прогрессивная
Бит/(Пиксели*Кадры) : 0.156
Размер потока : 1,50 Гбайт (69%)
Библиотека кодирования : x264 core 125 r2200 999b753
Настройки программы : cabac=1 / ref=9 / deblock=1:-2:-2 / analyse=0x3:0x133 / me=umh / subme=11 / psy=1 / psy_rd=1.00:0.00 / mixed_ref=1 / me_range=32 / chroma_me=1 / trellis=2 / 8x8dct=1 / cqm=0 / deadzone=21,11 / fast_pskip=0 / chroma_qp_offset=-2 / threads=12 / lookahead_threads=2 / sliced_threads=0 / nr=0 / decimate=0 / interlaced=0 / bluray_compat=0 / constrained_intra=0 / bframes=9 / b_pyramid=2 / b_adapt=1 / b_bias=0 / direct=3 / weightb=1 / open_gop=0 / weightp=2 / keyint=240 / keyint_min=23 / scenecut=40 / intra_refresh=0 / rc_lookahead=80 / rc=2pass / mbtree=1 / bitrate=2210 / ratetol=1.0 / qcomp=0.60 / qpmin=0 / qpmax=69 / qpstep=4 / cplxblur=20.0 / qblur=0.5 / ip_ratio=1.40 / aq=1:1.00
Default : Да
Forced : Нет

Аудио #1
Идентификатор : 2
Формат : AC-3
Формат/Информация : Audio Coding 3
Расширение режима : CM (complete main)
Параметр Endianness формата : Big
Идентификатор кодека : A_AC3
Продолжительность : 1 ч. 40 м.
Вид битрейта : Постоянный
Битрейт : 448 Кбит/сек
Каналы : 6 каналов
Расположение каналов : Front: L C R, Side: L R, LFE
Частота : 48,0 КГц
Битовая глубина : 16 бит
Метод сжатия : С потерями
Размер потока : 321 Мбайт (14%)
Заголовок : Дублированный (Лицензия)
Язык : Russian
Default : Да
Forced : Да

Аудио #2
Идентификатор : 3
Формат : AC-3
Формат/Информация : Audio Coding 3
Расширение режима : CM (complete main)
Параметр Endianness формата : Big
Идентификатор кодека : A_AC3
Продолжительность : 1 ч. 40 м.
Вид битрейта : Постоянный
Битрейт : 448 Кбит/сек
Каналы : 6 каналов
Расположение каналов : Front: L C R, Side: L R, LFE
Частота : 48,0 КГц
Битовая глубина : 16 бит
Метод сжатия : С потерями
Размер потока : 321 Мбайт (14%)
Язык : English
Default : Нет
Forced : Нет

Текст
Идентификатор : 4
Формат : UTF-8
Идентификатор кодека : S_TEXT/UTF8
Идентификатор кодека/Информация : UTF-8 Plain Text
Язык : English
Default : Нет
Forced : Нет







Релиз от: Rip by:




реклама партнёра


Вернуться к началу
 Профиль  
 
   Похожие торренты   Автор   Торрент   Размер 
В этой теме нет новых непрочитанных сообщений. Эффект бабочки / The Butterfly Effect [фантастика, триллер, 2004] BDRip, Dub

salma3

48 | 19

2.18 ГБ

В этой теме нет новых непрочитанных сообщений. Побочный эффект / Bieffekterna [фантастика, боевик, триллер, драма, 2016] WEBDLRip, Mvo

salma3

174 | 42

1.36 ГБ

В этой теме нет новых непрочитанных сообщений. Эффект Лазаря / The Lazarus Effect (Дэвид Гелб) [Ужасы, триллер, 2015] BDRip, Dub [iTunes]

Dracon

930 | 72

1.42 ГБ

В этой теме нет новых непрочитанных сообщений. Эффект Лазаря / The Lazarus Effect (Дэвид Гелб) [Ужасы, триллер, 2015] BDRip 1080p, Dub+Sub [iTunes]

Dracon

874 | 68

6.85 ГБ

В этой теме нет новых непрочитанных сообщений. Эффект Лазаря / The Lazarus Effect (Дэвид Гелб) [Ужасы, триллер, 2015] BDRip 720p, Dub+Sub [iTunes]

Dracon

1315 | 85

3.11 ГБ

В этой теме нет новых непрочитанных сообщений. Теория заговора / Zulu [Триллер, драма, криминал, 2013] BDRip 720p, Mvo+Sub [Лицензия]

Dracon

143 | 5

5.71 ГБ

В этой теме нет новых непрочитанных сообщений. Рога / Horns (Александр Ажа) [ужасы, фэнтези, триллер, драма, 2013] BDRip-AVC, Mvo+Sub [Лицензия]

Dracon

1801 | 68

2.18 ГБ


СообщениеДобавлено: 01 дек 2013, 01:42 

Не в сети
Аватара пользователя
Дата регистрации:
17 окт 2013, 04:59
Спасибо: 0 / 15
Сообщения: 6
КОКОЕ СТЕТЕМУ ДРАМУ ИГРАТЬ? :crazy:


Вернуться к началу
 Профиль Отправить личное сообщение  
 
Начать новую тему Ответить на тему  [ Сообщений: 2 ] 




Для Мосгорсуда, Роскомнадзора и рекламодателей:: mosgorsud-torrent[собачка]yandex.ru