Торрент файл
скачать торрент магнет ссылка Добавлен: 26 сен 2013, 10:54
Размер: 1.81 ГБ
Сидеров: 43
Личеров: 3
Статус: (salma3)
Автор

СообщениеДобавлено: 26 сен 2013, 10:54 

Не в сети
Зам. Админа
Аватара пользователя
Дата регистрации:
02 дек 2010, 12:39
Спасибо: 12461 / 214
Сообщения: 27968


Год выпуска: 2013
Жанр: Триллер, драма, криминал
Режиссер: Николас Виндинг Рефн
В ролях: Райан Гослинг, Кристин Скотт Томас, Гордон Браун, Том Берк, Чарли Руедпокэнон

Описание: Джулиан, бежавший от американского правосудия, руководит в Бангкоке клубом тайского бокса, который служит ему прикрытием для торговли наркотиками. Его мать, глава крупной преступной организации, приезжает из США, чтобы забрать тело своего любимого сына Билли: брата Джулиана только что убили за зверскую расправу над молодой проституткой. Охваченная яростью и жаждой мести мать требует, чтобы Джулиан нашел и покарал убийц. Молодому человеку придется столкнуться с Чангом — странным полицейским на пенсии, которого обожают его коллеги.



Страна: Франция, Таиланд, США, Швеция
Студия: A Grand Elephant, Bold Films, Film i Väst
Продолжительность: 01:29:29
Перевод: Любительский многоголосый

Качество: BDRip (AVC)
Видео: MPEG-4 AVC, 2000 Кбит/с, 1024x554, 23.976 кадр/с
Аудио #1: Русский (AC3, 6 ch, 448 Кбит/с) / Любительский многоголосый (HamsterStudio)
Аудио #2: Английский (AC3, 6 ch, 448 Кбит/с)
Субтитры: Русские, английские
Продолжительность: 01:29:29

Семпл



Общее
Уникальный идентификатор : 189599222475745867841741509617067864338 (0x8EA37B6457B93D4184E12D48CB41B112)
Полное имя : D:Mои раздачиTolko.bog.prostit.2013.BDRip.(AVC)-MediaClub.mkv
Формат : Matroska
Версия формата : Version 4 / Version 2
Размер файла : 1,81 Гбайт
Продолжительность : 1 ч. 29 м.
Общий поток : 2897 Кбит/сек
Название фильма : -=MediaClub-kaspr=-
Дата кодирования : UTC 2013-09-26 05:29:09
Программа кодирования : mkvmerge v6.3.0 ('You can't stop me!') built on Jul 19 2013 16:27:38
Библиотека кодирования : libebml v1.3.0 + libmatroska v1.4.1

Видео
Идентификатор : 1
Формат : AVC
Формат/Информация : Advanced Video Codec
Профиль формата : High@L4.1
Параметр CABAC формата : Да
Параметр ReFrames формата : 9 кадров
Идентификатор кодека : V_MPEG4/ISO/AVC
Продолжительность : 1 ч. 29 м.
Битрейт : 2000 Кбит/сек
Ширина : 1024 пикселя
Высота : 554 пикселя
Соотношение сторон : 1,85:1
Режим частоты кадров : Постоянный
Частота кадров : 23,976 кадра/сек
Цветовое пространство : YUV
Субдискретизация насыщенности : 4:2:0
Битовая глубина : 8 бит
Тип развёртки : Прогрессивная
Бит/(Пиксели*Кадры) : 0.147
Размер потока : 1,21 Гбайт (67%)
Заголовок : -=MediaClub-kaspr=-
Библиотека кодирования : x264 core 130 r2273 b3065e6
Настройки программы : cabac=1 / ref=9 / deblock=1:-3:-3 / analyse=0x3:0x133 / me=umh / subme=11 / psy=1 / psy_rd=1.00:0.20 / mixed_ref=1 / me_range=48 / chroma_me=1 / trellis=2 / 8x8dct=1 / cqm=0 / deadzone=21,11 / fast_pskip=0 / chroma_qp_offset=-3 / threads=12 / lookahead_threads=3 / sliced_threads=0 / nr=0 / decimate=0 / interlaced=0 / bluray_compat=0 / constrained_intra=0 / bframes=10 / b_pyramid=2 / b_adapt=2 / b_bias=0 / direct=3 / weightb=1 / open_gop=0 / weightp=2 / keyint=240 / keyint_min=23 / scenecut=40 / intra_refresh=0 / rc=2pass / mbtree=0 / bitrate=2000 / ratetol=1.0 / qcomp=0.60 / qpmin=0 / qpmax=69 / qpstep=4 / cplxblur=20.0 / qblur=0.5 / ip_ratio=1.40 / pb_ratio=1.30 / aq=1:1.00
Default : Да
Forced : Нет

Аудио #1
Идентификатор : 2
Формат : AC-3
Формат/Информация : Audio Coding 3
Расширение режима : CM (complete main)
Параметр Endianness формата : Big
Идентификатор кодека : A_AC3
Продолжительность : 1 ч. 29 м.
Вид битрейта : Постоянный
Битрейт : 448 Кбит/сек
Каналы : 6 каналов
Расположение каналов : Front: L C R, Side: L R, LFE
Частота : 48,0 КГц
Битовая глубина : 16 бит
Метод сжатия : С потерями
Размер потока : 287 Мбайт (15%)
Заголовок : L
Язык : Russian
Default : Да
Forced : Да

Аудио #2
Идентификатор : 3
Формат : AC-3
Формат/Информация : Audio Coding 3
Расширение режима : CM (complete main)
Параметр Endianness формата : Big
Идентификатор кодека : A_AC3
Продолжительность : 1 ч. 29 м.
Вид битрейта : Постоянный
Битрейт : 448 Кбит/сек
Каналы : 6 каналов
Расположение каналов : Front: L C R, Side: L R, LFE
Частота : 48,0 КГц
Битовая глубина : 16 бит
Метод сжатия : С потерями
Размер потока : 287 Мбайт (15%)
Язык : English
Default : Нет
Forced : Нет

Текст #1
Идентификатор : 4
Формат : UTF-8
Идентификатор кодека : S_TEXT/UTF8
Идентификатор кодека/Информация : UTF-8 Plain Text
Язык : Russian
Default : Нет
Forced : Нет

Текст #2
Идентификатор : 5
Формат : UTF-8
Идентификатор кодека : S_TEXT/UTF8
Идентификатор кодека/Информация : UTF-8 Plain Text
Язык : English
Default : Нет
Forced : Нет

Меню
00:00:00.000 : en:00:00:00.000
00:06:43.320 : en:00:06:43.320
00:17:57.285 : en:00:17:57.285
00:23:58.312 : en:00:23:58.312
00:29:55.585 : en:00:29:55.585
00:37:12.814 : en:00:37:12.814
00:46:54.353 : en:00:46:54.353
00:54:06.994 : en:00:54:06.994
01:01:20.260 : en:01:01:20.260
01:08:08.710 : en:01:08:08.710
01:15:42.872 : en:01:15:42.872
01:26:46.159 : en:01:26:46.159

Релиз:




реклама партнёра


Вернуться к началу
 Профиль  
 
   Похожие торренты   Автор   Торрент   Размер 
В этой теме нет новых непрочитанных сообщений. Только Бог простит / Only God Forgives [Триллер, драма, криминал, 2013] BDRip 720p, Avo+mvo+Sub

Dracon

369 | 52

4.37 ГБ

В этой теме нет новых непрочитанных сообщений. Джанго: Бог простит. Я – нет! / Dio perdona... Io no! [вестерн, 1967] BDRip 720p, Mvo

salma3

11 | 5

5 ГБ

В этой теме нет новых непрочитанных сообщений. Ча-ча-ча / Cha cha cha [Триллер, драма, криминал, 2013] BDRip, avo

Dracon

481 | 31

1.1 ГБ

В этой теме нет новых непрочитанных сообщений. Пленницы / Prisoners [триллер, драма, криминал, 2013] BDRip-AVC, Avo+Sub

Dracon

52 | 6

2.18 ГБ

В этой теме нет новых непрочитанных сообщений. МакКаник / McCanick [Триллер, Драма, Криминал, 2013] BDRip 720p, avo+sub

Dracon

11 | 2

4.66 ГБ

В этой теме нет новых непрочитанных сообщений. Из пекла / Out of the Furnace [триллер, драма, криминал, 2013] BDRip 1080p, dvo

Dracon

105 | 4

8.48 ГБ

В этой теме нет новых непрочитанных сообщений. Джо / Joe [боевик, триллер, драма, криминал, 2013] BDRip 720p, Mvo+Sub [лицензия]

Dracon

674 | 31

5.83 ГБ


Начать новую тему Ответить на тему  [ 1 сообщение ] 




Для Мосгорсуда, Роскомнадзора и рекламодателей:: mosgorsud-torrent[собачка]yandex.ru