Торрент файл
скачать торрент магнет ссылка Добавлен: 25 сен 2013, 16:02
Размер: 1.47 ГБ
Сидеров: 0
Личеров: 3
Статус: (salma3)
Автор

СообщениеДобавлено: 25 сен 2013, 16:02 

Не в сети
Супермодератор
Аватара пользователя
Дата регистрации:
15 фев 2012, 16:44
Возраст: 28
Спасибо: 6594 / 2145
Сообщения: 44278

Оскар / Oscar

Год выхода: 1967
Жанр: комедия
Режиссер: Эдуар Молинаро / Edouard Molinaro

В ролях: Луи де Фюнес, Клод Риш, Марио Давид, Джермейн Дельба, Клоди Жансак, Агата Натансон, Доминик Паж, Поль Пребуа, Сильвия Сорель, Филипп Валлори

О фильме:
Бертран Барнье — крупный промышленник, к которому с утра пораньше является его управляющий Кристиан. Он заявляет, что любит его дочь Колет, а после этого признается, что украл у предпринимателя кругленькую сумму. Вдобавок бизнесмен узнает, что его горничная увольняется и в одночасье становится баронессой.
Колет заявляет, что беременна от бывшего шофера по имени Оскар. Кроме того, выяснятся, что она вовсе не дочь Барнье и, не желая оставаться старой девой, готова выйти замуж за любого встречного…
К тому же, к этой истории примешиваются два черных чемодана, один из которых набит деньгами и драгоценностям, а другой женским нижним бельем… Как тут, от такого потока событий, происходящих в течение одного дня, «бедному» Бертрану не сойти с ума?!




Страна: Франция
Продолжительность: 01:23:08
Перевод #1: Профессиональный (дублированный) [Союзмультфильм]
Перевод #2: Профессиональный (многоголосый закадровый) [SomeWax]
Перевод #3: Профессиональный (многоголосый закадровый) [РенТВ]


Качество: HDRip
Контейнер: AVI
Видео кодек: XviD
Аудио кодек: AC3
Видео: 720x304 (2.37:1), 24.000 fps, XviD build 73 ~1930 kbps avg, 0.37 bit/pixel
Аудио#1: 48 kHz, AC3, 2/0 (L,R) ch, ~192.00 kbps avg [Дубляж]
Аудио#2: 48 kHz, AC3, 2/0 (L,R) ch, ~192.00 kbps avg [Многоголосый]
Аудио#3: 48 kHz, AC3, 2/0 (L,R) ch, ~192.00 kbps avg [Многоголосый]


D:Мои рипыOscar.1967.HDRip.dexter_lex.avi
General
Complete name : D:Мои рипыOscar.1967.HDRip.dexter_lex.avi
Format : AVI
Format/Info : Audio Video Interleave
File size : 1.47 GiB
Duration : 1h 23mn
Overall bit rate : 2 528 Kbps
Writing application : VirtualDubMod 1.5.10.3 | http://www.virtualdub-fr.org || (build 2550/release)
Writing library : VirtualDubMod build 2550/release
Video #0
ID : 0
Format : MPEG-4 Visual
Format profile : Advanced Simple@L5
Format settings, BVOP : 1
Format settings, QPel : No
Format settings, GMC : No warppoints
Format settings, Matrix : Custom
Codec ID : XVID
Codec ID/Hint : XviD
Duration : 1h 23mn
Bit rate : 1 932 Kbps
Width : 720 pixels
Height : 304 pixels
Display aspect ratio : 2.35:1
Frame rate : 24.000 fps
Color space : YUV
Chroma subsampling : 4:2:0
Bit depth : 8 bits
Scan type : Progressive
Compression mode : Lossy
Bits/(Pixel*Frame) : 0.368
Stream size : 1.12 GiB (76%)
Writing library : XviD 73
Audio #1
ID : 1
Format : AC-3
Format/Info : Audio Coding 3
Codec ID : 2000
Duration : 1h 23mn
Bit rate mode : Constant
Bit rate : 192 Kbps
Channel(s) : 2 channels
Sampling rate : 48.0 KHz
Compression mode : Lossy
Stream size : 114 MiB (8%)
Alignment : Split accross interleaves
Interleave, duration : 42 ms (1.00 video frame)
Interleave, preload duration : 500 ms
Audio #2
ID : 2
Format : AC-3
Format/Info : Audio Coding 3
Codec ID : 2000
Duration : 1h 23mn
Bit rate mode : Constant
Bit rate : 192 Kbps
Channel(s) : 2 channels
Sampling rate : 48.0 KHz
Compression mode : Lossy
Stream size : 114 MiB (8%)
Alignment : Split accross interleaves
Interleave, duration : 42 ms (1.00 video frame)
Interleave, preload duration : 500 ms
Audio #3
ID : 3
Format : AC-3
Format/Info : Audio Coding 3
Codec ID : 2000
Duration : 1h 23mn
Bit rate mode : Constant
Bit rate : 192 Kbps
Channel(s) : 2 channels
Sampling rate : 48.0 KHz
Compression mode : Lossy
Stream size : 114 MiB (8%)
Alignment : Split accross interleaves
Interleave, duration : 42 ms (1.00 video frame)
Interleave, preload duration : 500 ms
Раздача от:




реклама партнёра


Вернуться к началу
 Профиль Отправить личное сообщение  
 
   Похожие торренты   Автор   Торрент   Размер 
В этой теме нет новых непрочитанных сообщений. Оскар / Oscar [комедия, криминал, 1991] WEBRip, Dub

salma3

62 | 6

1.45 ГБ

В этой теме нет новых непрочитанных сообщений. Рико, Оскар и тени темнее тёмного / Rico, Oskar und die Tieferschatten (Неле Фолльмар) [комедия, приключения, семейный, 2014] HDRip, avo

Dracon

0 | 1

1.45 ГБ

В этой теме нет новых непрочитанных сообщений. Зип и Зап. Клуб стеклянных шариков  / Zipi y Zape y el club de la canica (Оскар Сантос Гомес) [Комедия, Приключения, Семейный, 2013] HDRip, dub [чистый звук]

Dracon

4 | 3

1.46 ГБ

В этой теме нет новых непрочитанных сообщений. Волшебники / Чародеи / The Sorcerers [ужасы, 1967] HDRip, Mvo

salma3

43 | 13

1.46 ГБ

В этой теме нет новых непрочитанных сообщений. Студентка / L' Etudiante [мелодрама, комедия, 1988] BDRip 1080p, Dub+2mvo+Avo+Sub

salma3

2 | 5

16.88 ГБ

В этой теме нет новых непрочитанных сообщений. Злоключения Альфреда / Les Malheurs d'Alfred [комедия, 1972] BDRemux, 2Mvo+Sub

salma3

0 | 5

21.5 ГБ

В этой теме нет новых непрочитанных сообщений. Мистер Судьба / Mr. Destiny [комедия, 1990] WEB-DL 720p, 2Avo+2Mvo+Sub

salma3

18 | 3

4.35 ГБ


Начать новую тему Ответить на тему  [ 1 сообщение ] 




Для Мосгорсуда, Роскомнадзора и рекламодателей:: mosgorsud-torrent[собачка]yandex.ru