Торрент файл
скачать торрент магнет ссылка Добавлен: 25 сен 2013, 15:47
Размер: 1.46 ГБ
Сидеров: 129
Личеров: 11
Статус: (salma3)
Автор

СообщениеДобавлено: 25 сен 2013, 15:47 

Не в сети
Супермодератор
Аватара пользователя
Дата регистрации:
15 фев 2012, 16:44
Возраст: 27
Спасибо: 5135 / 2089
Сообщения: 17406

Черный рыцарь / Black Knight

Год выхода: 2001
Жанр: фэнтези, комедия, приключения
Режиссер: Джил Джангер / Gil Junger

В ролях: Мартин Лоуренс, Марша Томасон, Том Уилкинсон, Винсент Риган, Кевин Конуэй, Эрик Дженсен, Хелен Кэри, Майкл Бургесс, Изабелл Монк, Марк Джеффри Миллер, Зэк Ханнер, Ричард Фуллертон, Грег Купер

О фильме:
Был обычный летний день. Джамал, как обычно, чистил ров в городском парке развлечений «Средневековый мир». Но судьба уже готовила ему самое веселое и безумное приключение в его жизни... Случайно перевернувшись через перила моста, Джамал падает в воду и выныривает в Средневековой Англии! Принятый за посла из Нормандии из-за странной одежды и манеры говорить, он знакомится с очаровательной заговорщицей, которая хочет свергнуть короля-тирана. Затянутый в заговор, Джамал между делом планирует открытие сети ресторанов быстрого питания, соблазняет дочку короля и запугивает до смерти всех горожан своими «колдовскими» способностями...



Страна: США
Продолжительность: 01:35:34
Перевод: Профессиональный (многоголосый, закадровый)

Файл
Качество: HDRip [BDRip 1080p]
Формат: AVI
Видео кодек: XviD
Аудио кодек: AC3
Видео: 720x304 (2.37:1), 23.976 fps, XviD build 73 ~1794 kbps avg, 0.34 bit/pixel
Аудио: 48 kHz, AC3 Dolby Digital, 3/2 (L,C,R,l,r) + LFE ch, ~384 kbps



D:Мои рипыChernyi.Rycar.2001.HDRip.dexter_lex.avi
General
Complete name : D:Мои рипыChernyi.Rycar.2001.HDRip.dexter_lex.avi
Format : AVI
Format/Info : Audio Video Interleave
File size : 1.46 GiB
Duration : 1h 35mn
Overall bit rate : 2 188 Kbps
Writing application : VirtualDubMod 1.5.10.3 | http://www.virtualdub-fr.org || (build 2550/release)
Writing library : VirtualDubMod build 2550/release
Video #0
ID : 0
Format : MPEG-4 Visual
Format profile : Advanced Simple@L5
Format settings, BVOP : 1
Format settings, QPel : No
Format settings, GMC : No warppoints
Format settings, Matrix : Custom
Codec ID : XVID
Codec ID/Hint : XviD
Duration : 1h 35mn
Bit rate : 1 795 Kbps
Width : 720 pixels
Height : 304 pixels
Display aspect ratio : 2.35:1
Frame rate : 23.976 fps
Color space : YUV
Chroma subsampling : 4:2:0
Bit depth : 8 bits
Scan type : Progressive
Compression mode : Lossy
Bits/(Pixel*Frame) : 0.342
Stream size : 1.20 GiB (82%)
Writing library : XviD 73
Audio #1
ID : 1
Format : AC-3
Format/Info : Audio Coding 3
Mode extension : CM (complete main)
Codec ID : 2000
Duration : 1h 35mn
Bit rate mode : Constant
Bit rate : 384 Kbps
Channel(s) : 6 channels
Channel positions : Front: L C R, Side: L R, LFE
Sampling rate : 48.0 KHz
Bit depth : 16 bits
Compression mode : Lossy
Stream size : 263 MiB (18%)
Alignment : Split accross interleaves
Interleave, duration : 42 ms (1.00 video frame)
Interleave, preload duration : 500 ms
Раздача от:




реклама партнёра


Вернуться к началу
 Профиль Отправить личное сообщение  
 
   Похожие торренты   Автор   Торрент   Размер 
В этой теме нет новых непрочитанных сообщений. Рыцарь дракона / Звездный рыцарь / El caballero del dragon / Star knight [Фантастика, фэнтези, мелодрама, приключения, 1985] DVDRip, Avo

salma3

46 | 4

1.45 ГБ

В этой теме нет новых непрочитанных сообщений. Черный Джек / Black Jack [комедия, приключения, 1979] HDRip, Avo

salma3

245 | 70

1.46 ГБ

В этой теме нет новых непрочитанных сообщений. Рыцарь кубков / Knight of Cups [драма, мелодрама, 2015] HDRip, Mvo

salma3

323 | 40

1.45 ГБ

В этой теме нет новых непрочитанных сообщений. Темный рыцарь / The Dark Knight [Боевик, Фантастика, Триллер, Криминал, 2008] HDRip, Avo [Гаврилов]

salma3

49 | 5

2.18 ГБ

В этой теме нет новых непрочитанных сообщений. Первый рыцарь / First Knight [Боевик, триллер, мелодрама, приключения, 1995] BDRip 1080p, Dub+4Mvo+Dvo+Avo+Sub

salma3

17 | 41

16.02 ГБ

В этой теме нет новых непрочитанных сообщений. Рыцарь кубков / Knight of Cups (Терренс Малик) [2015, драма, мелодрама, HDRip | Parovoz Production] dvo

Nickolas3435

1501 | 57

1.45 ГБ

В этой теме нет новых непрочитанных сообщений. История рыцаря / A Knight's Tale [приключения, боевик, комедия, 2001] BDRip, Dub

salma3

31 | 3

1.46 ГБ


Начать новую тему Ответить на тему  [ 1 сообщение ] 




Для Мосгорсуда, Роскомнадзора и рекламодателей:: mosgorsud-torrent[собачка]yandex.ru