Торрент файл
скачать торрент магнет ссылка Добавлен: 23 сен 2013, 00:22
Размер: 1.45 ГБ
Сидеров: 112
Личеров: 4
Статус: (salma3)
Автор

СообщениеДобавлено: 23 сен 2013, 00:22 

Не в сети
Супермодератор
Аватара пользователя
Дата регистрации:
15 фев 2012, 16:44
Возраст: 27
Спасибо: 5143 / 2090
Сообщения: 17499

Рыцарь мертвых / Knight of the Dead

Год выхода: 2013
Жанр: ужасы, фэнтези, боевик
Режиссер: Марк Аткинс

В ролях: Алан Калтон, Джейсон Бистон, Джордж МакКласки, Дилан Джонс, Дэннис Карр, Ли Беннетт, Ниа Энн, Фет Гринвуд, Хань, Эва Морган

О фильме:
Участники военных действий постоянно передают из уст в уста странную историю, о том что их армия никогда не проигрывала сражений. Это действительно так, но дело вовсе не в силе и мощи армии, а в неком таинственном явлении, так называемом «Рыцаре мертвых». Якобы в особенно опасные моменты он является со своим войском с того света, чтобы помочь солдатам одолеть противника. Так оно и есть, и в этом смогут убедиться наши герои, когда потеряют всякую надежду на победу и уже готовы будут отступить назад. Но им не придется этого делать, ведь их враг будет поражен неведомой силой…




Страна: США, Великобритания
Продолжительность: 01:22:10
Озвучивание: Любительское (одноголосое) [den904], перевод [Nitro]

Файл
Качество: HDRip-AVC
Формат файла: MKV
Аудио кодек: AC3
Видео: Видео: 2150 kb/s, 1024x576
Аудио: Russian / English: AC3, 192 (2 ch)




Format : Matroska
Format version : Version 4 / Version 2
File size : 1.45 GiB
Duration : 1h 22mn
Overall bit rate : 2 530 Kbps
Encoded date : UTC 2013-09-22 11:36:03
Writing application : mkvmerge v6.1.0 ('Old Devil') built on Mar 4 2013 09:10:42
Writing library : libebml v1.3.0 + libmatroska v1.4.0

Video
ID : 1
Format : AVC
Format/Info : Advanced Video Codec
Format profile : High@L4.0
Format settings, CABAC : Yes
Format settings, ReFrames : 10 frames
Codec ID : V_MPEG4/ISO/AVC
Duration : 1h 22mn
Bit rate : 2 150 Kbps
Width : 1 024 pixels
Height : 576 pixels
Display aspect ratio : 16:9
Frame rate : 23.976 fps
Color space : YUV
Chroma subsampling : 4:2:0
Bit depth : 8 bits
Scan type : Progressive
Bits/(Pixel*Frame) : 0.152
Stream size : 1.20 GiB (83%)
Writing library : x264 core 130 r2273 b3065e6
Encoding settings : cabac=1 / ref=10 / deblock=1:-3:-3 / analyse=0x3:0x133 / me=umh / subme=11 / psy=1 / psy_rd=1.00:0.20 / mixed_ref=1 / me_range=32 / chroma_me=1 / trellis=2 / 8x8dct=1 / cqm=0 / deadzone=21,11 / fast_pskip=0 / chroma_qp_offset=-3 / threads=12 / lookahead_threads=2 / sliced_threads=0 / nr=0 / decimate=0 / interlaced=0 / bluray_compat=0 / constrained_intra=0 / bframes=9 / b_pyramid=2 / b_adapt=2 / b_bias=0 / direct=3 / weightb=1 / open_gop=0 / weightp=2 / keyint=250 / keyint_min=23 / scenecut=40 / intra_refresh=0 / rc=2pass / mbtree=0 / bitrate=2150 / ratetol=1.0 / qcomp=0.60 / qpmin=0 / qpmax=69 / qpstep=4 / cplxblur=20.0 / qblur=0.5 / ip_ratio=1.40 / pb_ratio=1.30 / aq=1:1.00
Language : English
Default : Yes
Forced : No

Audio #1
ID : 2
Format : AC-3
Format/Info : Audio Coding 3
Mode extension : CM (complete main)
Format settings, Endianness : Big
Codec ID : A_AC3
Duration : 1h 22mn
Bit rate mode : Constant
Bit rate : 192 Kbps
Channel(s) : 2 channels
Channel positions : Front: L R
Sampling rate : 48.0 KHz
Bit depth : 16 bits
Compression mode : Lossy
Stream size : 113 MiB (8%)
Language : Russian
Default : Yes
Forced : No

Audio #2
ID : 3
Format : AC-3
Format/Info : Audio Coding 3
Mode extension : CM (complete main)
Format settings, Endianness : Big
Codec ID : A_AC3
Duration : 1h 22mn
Bit rate mode : Constant
Bit rate : 192 Kbps
Channel(s) : 2 channels
Channel positions : Front: L R
Sampling rate : 48.0 KHz
Bit depth : 16 bits
Compression mode : Lossy
Stream size : 113 MiB (8%)
Language : English
Default : No
Forced : No

Menu
00:00:00.000 : en:00:00:00.000
00:18:28.899 : en:00:18:28.899
00:31:39.397 : en:00:31:39.397
00:54:47.784 : en:00:54:47.784
01:06:39.662 : en:01:06:39.662
01:18:11.478 : en:01:18:11.478


Рип: 03nazar03




реклама партнёра


Вернуться к началу
 Профиль Отправить личное сообщение  
 
   Похожие торренты   Автор   Торрент   Размер 
В этой теме нет новых непрочитанных сообщений. Подземелье мертвых / Мертвая шахта / Dead Mine [ужасы, боевик, 2012] HDRip, Mvo

salma3

312 | 9

1.36 ГБ

В этой теме нет новых непрочитанных сообщений. Рыцарь дракона / Звездный рыцарь / El caballero del dragon / Star knight [Фантастика, фэнтези, мелодрама, приключения, 1985] DVDRip, Avo

salma3

46 | 4

1.45 ГБ

В этой теме нет новых непрочитанных сообщений. Темный рыцарь / The Dark Knight [Боевик, Фантастика, Триллер, Криминал, 2008] HDRip, Avo [Гаврилов]

salma3

49 | 5

2.18 ГБ

В этой теме нет новых непрочитанных сообщений. Подземелье мертвых / Мертвая шахта / Dead Mine [Ужасы, боевик, 2012] Blu-Ray Remux 1080p, Mvo+Sub

salma3

25 | 5

19.68 ГБ

В этой теме нет новых непрочитанных сообщений. Подземелье мертвых / Мертвая шахта / Dead Mine [Ужасы, боевик, 2012] BDRip 720p, Mvo+Sub

salma3

60 | 10

4.63 ГБ

В этой теме нет новых непрочитанных сообщений. Подземелье мертвых / Мертвая шахта / Dead Mine [Ужасы, боевик, 2012] BDRip 1080p, Mvo+Sub

salma3

40 | 6

8.2 ГБ

В этой теме нет новых непрочитанных сообщений. Комната мертвых / The Dead Room 2015 [Ужасы, 2015] HDRip, Avo

salma3

56 | 3

1.14 ГБ


Начать новую тему Ответить на тему  [ 1 сообщение ] 




Для Мосгорсуда, Роскомнадзора и рекламодателей:: mosgorsud-torrent[собачка]yandex.ru