Торрент файл
скачать торрент магнет ссылка Добавлен: 20 сен 2013, 15:25
Размер: 1.37 ГБ
Сидеров: 0
Личеров: 6
Статус: (salma3)
Автор

СообщениеДобавлено: 20 сен 2013, 15:25 

Не в сети
Супермодератор
Аватара пользователя
Дата регистрации:
15 фев 2012, 16:44
Возраст: 28
Спасибо: 6399 / 2128
Сообщения: 37525

Любовь по рецепту / Menu degustaciу

Год выхода: 2013
Жанр: комедия, мелодрама
Режиссер: Роже Гуаль

В ролях: Хан Корнет, Клаудия Бассольс, Висента Н’Донго, Эндрю ТарбетТого, Игава, Фионнула Флэнаган, Стивен Ри, Тимоти Гиббс, Андрес Эррера, Санти Миллан

О фильме:
Прошел год с тех пор как Марк и Рэйчел забронировали столик в одном из лучших ресторанов Испании, расположенном прямо на берегу Средиземного моря. И вот наконец они приглашены! Мало того, день их посещения станет последним днем работы ресторана, который хозяева решили закрыть, чтобы открыть ресторан в Токио. Так что пропустить такое уникальное событие было бы просто преступлением. Но дело в том, что за этот год пара успела расстаться. Марк остался работать в Барселоне, а Рейчел переехала в Нью-Йорк. Не смотря на это, они все же решают встретиться друг с другом вновь, всего на один вечер, который станет самым невероятным и незабываемым не только для них, но и для других гостей ресторана.



Страна: Испания
Продолжительность: 01:18:38
Перевод: Профессиональный (многоголосый, закадровый)

Файл
Качество: DVDRip
Формат файла: AVI
Видео кодек: XviD
Аудио кодек: AC3
Видео: 720x304 (2.35:1), 29.970 fps, XviD MPEG-4 ~2029 kbps avg, 0.26 bit/pixel
Аудио: 48 kHz, АС3, 2 ch, Front: L R ~448.00 kbps avg




Полное имя : C:Videolubovporezepty.2013.DVDRip.avi
Формат : AVI
Формат/Информация : Audio Video Interleave
Размер файла : 1,37 Гбайт
Продолжительность : 1 ч. 18 м.
Общий поток : 2488 Кбит/сек
Программа кодирования : VirtualDubMod 1.5.10.3 | http://www.virtualdub-fr.org || (build 2550/release)
Библиотека кодирования : VirtualDubMod build 2550/release

Видео
Идентификатор : 0
Формат : MPEG-4 Visual
Профиль формата : Advanced Simple@L5
Параметр BVOP формата : 2
Параметр QPel формата : Нет
Параметр GMC формата : Без точки перехода
Параметр матрицы формата : Выборочная
Идентификатор кодека : XVID
Идентификатор кодека/Подсказка : XviD
Продолжительность : 1 ч. 18 м.
Битрейт : 2029 Кбит/сек
Ширина : 720 пикселей
Высота : 304 пикселя
Соотношение сторон : 2,35:1
Частота кадров : 29,970 кадров/сек
Цветовое пространство : YUV
Субдискретизация насыщенности : 4:2:0
Битовая глубина : 8 бит
Тип развёртки : Прогрессивная
Метод сжатия : С потерями
Бит/(Пиксели*Кадры) : 0.309
Размер потока : 1,11 Гбайт (82%)
Библиотека кодирования : XviD 1.2.1 (UTC 2008-12-04)

Аудио
Идентификатор : 1
Формат : AC-3
Формат/Информация : Audio Coding 3
Расширение режима : CM (complete main)
Параметр Endianness формата : Big
Идентификатор кодека : 2000
Продолжительность : 1 ч. 18 м.
Вид битрейта : Постоянный
Битрейт : 448 Кбит/сек
Каналы : 2 канала
Расположение каналов : Front: L R
Частота : 48,0 КГц
Битовая глубина : 16 бит
Метод сжатия : С потерями
Размер потока : 252 Мбайт (18%)
Выравнивание : Разделение по промежуткам
Продолжительность промежутка : 33 мс. (1,00 видеокадр)
Время предзагрузки промежутка : 500 мс.




реклама партнёра


Вернуться к началу
 Профиль Отправить личное сообщение  
 
   Похожие торренты   Автор   Торрент   Размер 
В этой теме нет новых непрочитанных сообщений. Любовь в словах и картинах / Любовь в словах и картинках / Words and Pictures [драма, мелодрама, комедия, 2013] HDRip, Dub [НТВ]

Dracon

244 | 18

1.45 ГБ

В этой теме нет новых непрочитанных сообщений. Все в порядке, это любовь / Просто это любовь / Ничего страшного, это любовь / It's Okay It's Love [01-16 из 16](Ким Кю Тхэ)[2014, мелодрама, романтика, комедия, психология, HDTVRip 720р]

Nickolas3435

9 | 5

18.51 ГБ

В этой теме нет новых непрочитанных сообщений. Любовь или секс / The Bounceback [мелодрама, комедия, 2013] WEB-DLRip, Mvo

Dracon

337 | 23

1.37 ГБ

В этой теме нет новых непрочитанных сообщений. Любовь или секс / The Bounceback (Брайан Пойсер) [мелодрама, комедия, 2013] WEB-DL 1080p, Mvo

Dracon

2 | 2

3.49 ГБ

В этой теме нет новых непрочитанных сообщений. Любовь или секс / The Bounceback (Брайан Пойсер) [мелодрама, комедия, 2013] WEB-DL 720p, Mvo

Dracon

7 | 2

2.96 ГБ

В этой теме нет новых непрочитанных сообщений. Любовь в словах и картинках / Words and Pictures [драма, мелодрама, комедия, 2013] BDRip 1080p, Dub+Sub

Dracon

13 | 2

9.98 ГБ

В этой теме нет новых непрочитанных сообщений. Любовь в словах и картинках / Words and Pictures [драма, мелодрама, комедия, 2013] BDRip 720p, Dub+Sub

Dracon

29 | 5

3.65 ГБ


Начать новую тему Ответить на тему  [ 1 сообщение ] 




Для Мосгорсуда, Роскомнадзора и рекламодателей:: mosgorsud-torrent[собачка]yandex.ru