Торрент файл
скачать торрент магнет ссылка Добавлен: 19 сен 2013, 15:30
Размер: 1.45 ГБ
Сидеров: 34
Личеров: 3
Статус: (salma3)
Автор

СообщениеДобавлено: 19 сен 2013, 15:30 

Не в сети
Супермодератор
Аватара пользователя
Дата регистрации:
15 фев 2012, 16:44
Возраст: 27
Спасибо: 5135 / 2089
Сообщения: 17406

Возвращение Джека - потрошителя / Ripper

Год выхода: 2001
Жанр: ужасы, триллер
Режиссер: Джон Эйрс / John Eyres

В ролях: А.Дж. Кук, Брюс Пэйн, Райан Норткотт, Юрген Прохнов

О фильме:
Пережив кровавую резню, отважная Молли Келлер стремится постичь психологию серийных убийц. Она поступает в Бэркли на знаменитые курсы криминалистов, но волна жестоких убийств, внезапно прокатившаяся по студгородку, заставляет ее заняться самостоятельными изысканиями.
К своему ужасу Молли вскоре понимает, что загадочный маньяк тщательно копирует методы легендарного Джека-Потрошителя. Число жертв растет, и теперь только от мужества и сообразительности Молли зависит жизнь ее напуганных друзей.




Страна: Канада, Великобритания
Продолжительность: 01:54:10
Перевод: Профессиональный (многоголосый, закадровый)

Файл
Качество: DVDRip
Формат файла: AVI
Видео кодек: XviD
Аудио кодек: AC3
Видео: 704x400 (1.76:1), 23.976 fps, XviD build 50 ~1617 kbps avg, 0.24 bit/pixel
Аудио: 48 kHz, AC3 Dolby Digital, 2/0 (L,R) ch, ~192.00 kbps avg



За релиз спасибо: *Jonathan*


General
Complete name : E:\Фильмы\Возвращение Джека-Потрошителя.2001.MVO.[tfile.ru].avi
Format : AVI
Format/Info : Audio Video Interleave
File size : 1.45 GiB
Duration : 1h 54mn
Overall bit rate : 1 819 Kbps
Writing application : VirtualDubMod 1.5.10.2 (build 2540/release)
Writing library : VirtualDubMod build 2540/release

Video
ID : 0
Format : MPEG-4 Visual
Format profile : Advanced Simple@L5
Format settings, BVOP : 1
Format settings, QPel : No
Format settings, GMC : No warppoints
Format settings, Matrix : Default (H.263)
Codec ID : XVID
Codec ID/Hint : XviD
Duration : 1h 54mn
Bit rate : 1 618 Kbps
Width : 704 pixels
Height : 400 pixels
Display aspect ratio : 16:9
Frame rate : 23.976 fps
Color space : YUV
Chroma subsampling : 4:2:0
Bit depth : 8 bits
Scan type : Progressive
Compression mode : Lossy
Bits/(Pixel*Frame) : 0.240
Stream size : 1.29 GiB (89%)
Writing library : XviD 1.2.1 (UTC 2008-12-04)

Audio
ID : 1
Format : AC-3
Format/Info : Audio Coding 3
Mode extension : CM (complete main)
Codec ID : 2000
Duration : 1h 54mn
Bit rate mode : Constant
Bit rate : 192 Kbps
Channel(s) : 2 channels
Channel positions : Front: L R
Sampling rate : 48.0 KHz
Bit depth : 16 bits
Compression mode : Lossy
Stream size : 157 MiB (11%)
Alignment : Split accross interleaves
Interleave, duration : 42 ms (1.00 video frame)
Interleave, preload duration : 500 ms




реклама партнёра


Вернуться к началу
 Профиль Отправить личное сообщение  
 
   Похожие торренты   Автор   Торрент   Размер 
В этой теме нет новых непрочитанных сообщений. Улица потрошителя / Ripper Street [S04] [криминал, детектив, 2016] WEBRip 720p, Mvo [NewStudio]

salma3

0 | 0

11.75 ГБ

В этой теме нет новых непрочитанных сообщений. Шоссе 666 / Route 666 [ужасы, боевик, триллер, 2001] DVDRip-AVC, Mvo

salma3

34 | 4

1.46 ГБ

В этой теме нет новых непрочитанных сообщений. Бессмертные души / Soul Survivors [ Ужасы, Триллер, 2001] DVDRip-AVC, Mvo

salma3

1 | 2

1.46 ГБ

В этой теме нет новых непрочитанных сообщений. Приют кошмаров / The Attic Expeditions [ужасы, триллер, комедия, детектив, 2001] DVDRip, Avo

salma3

50 | 8

1.46 ГБ

В этой теме нет новых непрочитанных сообщений. Земля против паука / Earth vs. the Spider [ужасы, фантастика, триллер, 2001] DVDRip, Mvo

salma3

11 | 5

1.37 ГБ

В этой теме нет новых непрочитанных сообщений. Возвращение в дом ночных призраков / Return to House on Haunted Hill [ужасы, триллер, 2007] BDRip, Avo

salma3

0 | 2

1.45 ГБ

В этой теме нет новых непрочитанных сообщений. Колыбель кошмаров / Cradle of Fear [ужасы, триллер, драма, криминал, детектив, 2001] DVDRip-AVC, Dvo

salma3

16 | 2

1.47 ГБ


СообщениеДобавлено: 20 сен 2013, 23:00 

Не в сети
Супермодератор
Аватара пользователя
Дата регистрации:
15 фев 2012, 16:44
Возраст: 27
Спасибо: 5135 / 2089
Сообщения: 17406
Фильм, на мой взгляд, лучше, чем вторая часть

_________________


Вернуться к началу
 Профиль Отправить личное сообщение  
 
Начать новую тему Ответить на тему  [ Сообщений: 2 ] 




Для Мосгорсуда, Роскомнадзора и рекламодателей:: mosgorsud-torrent[собачка]yandex.ru