Торрент файл
скачать торрент магнет ссылка Добавлен: 18 сен 2013, 11:51
Размер: 1.53 ГБ
Сидеров: 15
Личеров: 5
Статус: (salma3)
Автор

СообщениеДобавлено: 18 сен 2013, 11:51 

Не в сети
Супермодератор
Аватара пользователя
Дата регистрации:
15 фев 2012, 16:44
Возраст: 27
Спасибо: 5130 / 2089
Сообщения: 17350

Информация о фильме
Название: Хозяин мёртвого леса
Оригинальное название: Woods of Evil
Год выхода: 2005
Жанр: Ужасы
Режиссер: Конрад Гловер / Conrad Glover
В ролях: Рэй Брин, Рэйне Браун, Рон Дугласс, Лиссетт Эспиллат, Кристофер Фармер, Лидия Фиоре, Конрад Гловер

О фильме:
Самые невероятные слухи и страшные легенды ходят о кошмаре, скрывающемся в лесной чаще. Еще никому не удавалось вернуться оттуда живым… Трое головорезов, промышляющих киднеппингом, решают скрыться от правосудия в заброшенном доме на опушке, ничего не зная о дурной славе этого гиблого места. Очень скоро они поймут, что угроза тюрьмы ничто, по — сравнению с ужасом, ожидающим их впереди. Кровожадный маньяк, давно облюбовавший окрестности, придумает каждому из них самую изощренную форму смерти…

Страна: США
Студия: Joco Films Inc
Продолжительность: 01:22:26
Перевод: Профессиональный (двухголосый закадровый)

Файл
Кодек: H264
Качество: DVDRip-AVC
Видео: MPEG-4 AVC, 768x576, 2355kbps, 23,976fps, Pixel frame 0,222
Звук:
Audio #1: Russian (mp2, 2ch, 128kbps)
Audio #2: English (mp2, 2ch, 128kbps)
Субтитры: Нет

General
Unique ID : 168348648403719580577546155723716462494 (0x7EA6C532C2870C1E037BA147C20E879E)
Complete name : F:Ужасы. МистикаХозяин мёртвого леса (2005) DVDRip-AVC Двухголосый, Английский.mkv
Format : Matroska
Format version : Version 2
File size : 1.53 GiB
Duration : 1h 22mn
Overall bit rate mode : Variable
Overall bit rate : 2 664 Kbps
Writing application : Lavf51.12.1
Writing library : Lavf51.12.1

Video #1
ID : 1
Format : AVC
Format/Info : Advanced Video Codec
Format profile : Baseline@L3.1
Format settings, CABAC : No
Format settings, ReFrames : 1 frame
Format settings, GOP : M=1, N=12
Codec ID : V_MPEG4/ISO/AVC
Duration : 1h 22mn
Bit rate mode : Variable
Bit rate : 2 355 Kbps
Maximum bit rate : 3 600 Kbps
Width : 768 pixels
Height : 576 pixels
Display aspect ratio : 4:3
Frame rate mode : Constant
Frame rate : 23.976 fps
Original frame rate : 24.000 fps
Color space : YUV
Chroma subsampling : 4:2:0
Bit depth : 8 bits
Scan type : Progressive
Bits/(Pixel*Frame) : 0.222
Stream size : 1.36 GiB (88%)
Default : Yes
Forced : No

Audio #2
ID : 2
Format : MPEG Audio
Format version : Version 1
Format profile : Layer 2
Codec ID : A_MPEG/L2
Codec ID/Hint : MP2
Duration : 1h 22mn
Bit rate mode : Constant
Bit rate : 128 Kbps
Channel(s) : 2 channels
Sampling rate : 44.1 KHz
Compression mode : Lossy
Stream size : 75.5 MiB (5%)
Default : Yes
Forced : No

Audio #3
ID : 3
Format : MPEG Audio
Format version : Version 1
Format profile : Layer 2
Codec ID : A_MPEG/L2
Codec ID/Hint : MP2
Duration : 1h 22mn
Bit rate mode : Constant
Bit rate : 128 Kbps
Channel(s) : 2 channels
Sampling rate : 44.1 KHz
Compression mode : Lossy
Stream size : 75.5 MiB (5%)
Default : Yes
Forced : No






реклама партнёра


Вернуться к началу
 Профиль Отправить личное сообщение  
 
   Похожие торренты   Автор   Торрент   Размер 
В этой теме нет новых непрочитанных сообщений. Проклятье мертвого озера / Snakehead Terror [ужасы, фантастика, боевик, триллер, 2004] DVDRip, Dvo

salma3

6 | 4

1.37 ГБ

В этой теме нет новых непрочитанных сообщений. Лесной наблюдатель / The Watcher in the Woods [Ужасы, триллер, детектив, 1980] DVDRip, Avo

salma3

22 | 3

1.37 ГБ

В этой теме нет новых непрочитанных сообщений. Ночь в лесу / A Night in the Woods (Ричард Парри) [2011, ужасы, DVDRip] avo

Nickolas3435

35 | 5

733.49 МБ

В этой теме нет новых непрочитанных сообщений. Легенда Хэрроу-Вудс / The Legend of Harrow Woods [ужасы, 2008] DVDRip, Avo

salma3

19 | 4

1.19 ГБ

В этой теме нет новых непрочитанных сообщений. Невидимое зло / Unseen Evil [ужасы, 2001] DVDRip, Avo

salma3

4 | 4

745.48 МБ

В этой теме нет новых непрочитанных сообщений. Не поминай зло / Speak No Evil [ужасы, 2013] DVDRip, Dvo

salma3

198 | 3

1.37 ГБ

В этой теме нет новых непрочитанных сообщений. Злые духи / Evil Spirits [ужасы, 1990] DVDRip, Avo

salma3

23 | 6

1.37 ГБ


Начать новую тему Ответить на тему  [ 1 сообщение ] 




Для Мосгорсуда, Роскомнадзора и рекламодателей:: mosgorsud-torrent[собачка]yandex.ru