Торрент файл
скачать торрент магнет ссылка Добавлен: 16 сен 2013, 16:50
Размер: 1.36 ГБ
Сидеров: 22
Личеров: 6
Статус: (salma3)
Автор

СообщениеДобавлено: 16 сен 2013, 16:50 

Не в сети
Супермодератор
Аватара пользователя
Дата регистрации:
15 фев 2012, 16:44
Возраст: 27
Спасибо: 5139 / 2089
Сообщения: 17411

Кровавый полет / Air Rage

Год выхода: 2001
Жанр: боевик, приключения
Режиссер: Фред Олен Рэй /Fred Olen Ray

В ролях: Айс-Ти, Сирил О'Рейлли, Кимберли Ойа, Мэри Элизабет МакГлинн, Марк Хамфри, Рик Крэймер, Глинн Термэн, Александра Рейнс, Шэйн Конрад, Алекс Корд, Ричард Энтони Кренна, Дон Доу

О фильме:
Пассажиры рейса номер 777 компании «Атлантик Эирвэйс», следующего по маршруту «Вашингтон — Лос-Анджелес», не предполагали, что их полет превратится в настоящий ад! Самолет захватывает прекрасно подготовленная команда террористов, во главе которых стоит бывший полковник морской пехоты Джон Сайкс.
Некоторое время назад Сайкс был разжалован и приговорен военным трибуналом к пожизненному заключению. Однако полковнику удалось уйти от правосудия, и теперь он жаждал мести. И, поверьте, месть Сайкса будет ужасной и кровавой, ибо ему уже нечего терять… После того, как террористы пригрозили взорвать самолет в случае, если не выполнят их требования, в дело вступают элитные подразделения по борьбе с терроризмом. Капитан спецназа Мэтью Маршалл и его десантники начинают рискованную операцию по спасению заложников…




Страна: США
Продолжительность: 01:35:50
Перевод: Профессиональный (многоголосый, закадровый) (ВГТРК)

Файл
Качество: DVDRip
Формат файла: AVI
Видео кодек: XviD
Аудио кодек: AC3
Видео: 688x496 (1.39:1), 25 fps, DivX Codec 5.2 ~1836 kbps avg, 0.22 bit/pixel
Аудио: 48 kHz, AC3 Dolby Digital, 2/0 (L,R) ch, ~192 kbps


Доп. информация: Премьера (мир): 25 мая 2001













General
Complete name : E:\Фильмы\Кровавый полет.2001.MVO.[tfile.ru].avi
Format : AVI
Format/Info : Audio Video Interleave
File size : 1.36 GiB
Duration : 1h 35mn
Overall bit rate : 2 038 Kbps
Writing application : VirtualDubMod 1.5.10.3 | http://www.virtualdub-fr.org || (build 2550/release)
Writing library : VirtualDubMod build 2550/release

Video
ID : 0
Format : MPEG-4 Visual
Format settings, BVOP : No
Format settings, QPel : No
Format settings, GMC : No warppoints
Format settings, Matrix : Default (H.263)
Codec ID : DX50
Codec ID/Hint : DivX 5
Duration : 1h 35mn
Bit rate : 1 837 Kbps
Width : 688 pixels
Height : 496 pixels
Display aspect ratio : 1.387
Frame rate : 25.000 fps
Color space : YUV
Chroma subsampling : 4:2:0
Bit depth : 8 bits
Scan type : Progressive
Compression mode : Lossy
Bits/(Pixel*Frame) : 0.215
Stream size : 1.23 GiB (90%)
Writing library : DivX 5.2.0 (UTC 2004-07-15)

Audio
ID : 1
Format : AC-3
Format/Info : Audio Coding 3
Mode extension : CM (complete main)
Codec ID : 2000
Duration : 1h 35mn
Bit rate mode : Constant
Bit rate : 192 Kbps
Channel(s) : 2 channels
Channel positions : Front: L R
Sampling rate : 48.0 KHz
Bit depth : 16 bits
Compression mode : Lossy
Stream size : 132 MiB (9%)
Alignment : Split accross interleaves
Interleave, duration : 40 ms (1.00 video frame)
Interleave, preload duration : 500 ms




реклама партнёра


Вернуться к началу
 Профиль Отправить личное сообщение  
 
   Похожие торренты   Автор   Торрент   Размер 
В этой теме нет новых непрочитанных сообщений. Ярость / The Rage [Боевик, 1997] DVDRip, Dvo [REN TV]

salma3

9 | 3

1.46 ГБ

В этой теме нет новых непрочитанных сообщений. Гнев / Rage [Боевик, 1994] DVDRip, Dvo [НТВ+]

salma3

13 | 4

1.42 ГБ

В этой теме нет новых непрочитанных сообщений. Ярость / The Rage [Боевик, триллер, 1997] DVDRip, Avo

salma3

29 | 2

1.48 ГБ

В этой теме нет новых непрочитанных сообщений. Кровавый сговор / Bloodmatch [боевик, 1991] DVDRip, Avo

salma3

21 | 3

1.47 ГБ

В этой теме нет новых непрочитанных сообщений. Гнев / Rage [боевик, триллер, 1995] DVDRip, Avo [Гаврилов]

salma3

66 | 2

1.46 ГБ

В этой теме нет новых непрочитанных сообщений. Кровавый спорт 3 / Bloodsport 3 [Боевик, боевые искусства, 1996] DVDRip-AVC, Dvo+Avo

salma3

58 | 16

2.17 ГБ

В этой теме нет новых непрочитанных сообщений. Sky Of Rage - Sky Of Rage [2012, Heavy Metal, MP3]

PriZraK

0 | 1

100.81 МБ


Начать новую тему Ответить на тему  [ 1 сообщение ] 




Для Мосгорсуда, Роскомнадзора и рекламодателей:: mosgorsud-torrent[собачка]yandex.ru