Торрент файл
скачать торрент магнет ссылка Добавлен: 21 ноя 2013, 10:11
Размер: 1.41 ГБ
Сидеров: 169
Личеров: 3
Статус: (salma3)
Автор

СообщениеДобавлено: 15 сен 2013, 20:44 

Не в сети
Зам. Админа
Аватара пользователя
Дата регистрации:
02 дек 2010, 12:39
Спасибо: 12461 / 214
Сообщения: 27968
Год выпуска: 2013
Производство: США
Жанр: Комедия, Фэнтези
Перевод: Отсутствует
Язык: Английский
Язык субтитров: Английский
Вид субтитров: Отдельным файлом

Режиссер: Сет Роген, Ивэн Голдберг
Продюсеры: Ивэн Голдберг, Сет Роген, Джеймс Уивер
Актеры: Сет Роген, Джей Барушель, Джеймс Франко, Джона Хилл, Крэйг Робинсон, Дэнни МакБрайд, Майкл Сера, Эмма Уотсон, Минди Калинг

Описание фильма:
Джей Барушель приезжает в Лос-Анджелес, чтобы посетить старого друга и коллегу, актера Сета Рогена, который пригласил Барушеля на новоселье, которое организовывает Джеймс Франко. На не очень приличную вечеринку приехали многие знаменитости. Барушелю неудобно среди такого количества людей, он практически не знает лично таких знаменитостей, как: Джона Хилл, Кристофер Минц-Плассе, Майкл Сера, Крейг Робинсон, Эмма Уотсон и Ченнинг Татум. Роген, чтобы немного успокоить друга сопровождает его в магазин за сигаретами.

В магазине лучи синего света с неба вдруг унесли несколько покупателей. Перепуганные Роген и Барушель бегут в дом Франко на фоне взрывов, автомобильных аварий, а также массового хаоса, но на вечеринке синие лучи никого не тронули. Подвыпившие гости не верят россказням Барушеля и объявляют его сумасшедшим, но через несколько секунд слышат снаружи грохот…



Дата мировой премьеры: 3 июня 2013 (премьера в Лос-Анжелесе, Калифорния)
Дата российской премьеры: 19 сентября 2013 («WDSSPR»)
Дата выхода DVD/BD релиза: 12 декабря 2013 ( «Columbia/Sony»)
Бюджет: $32 000 000

Качество видео: BDRip
Продолжительность 01:46:41

Формат: AVI
Видеокодек: Xvid
Битрейт видео: ~ 1496 kb/s
Размер кадра: 720x304
Аудиокодек: AC3 6.0
Битрейт аудио: 448 kb/s
General
Complete name : E:\Фильмы в оригинале\This is the End.2013.BDRip\This is the End.2013.BDRip.avi
Format : AVI
Format/Info : Audio Video Interleave
File size : 1.46 GiB
Duration : 1h 46mn
Overall bit rate : 1 953 Kbps
Writing application : VirtualDubMod 1.5.10.3 | www.virtualdub-fr.org || (build 2550/release)
Writing library : VirtualDubMod build 2550/release

Video
ID : 0
Format : MPEG-4 Visual
Format profile : Advanced Simple@L5
Format settings, BVOP : 3
Format settings, QPel : No
Format settings, GMC : No warppoints
Format settings, Matrix : Default (MPEG)
Codec ID : XVID
Codec ID/Hint : XviD
Duration : 1h 46mn
Bit rate : 1 496 Kbps
Width : 720 pixels
Height : 304 pixels
Display aspect ratio : 2.35:1
Frame rate : 23.976 fps
Color space : YUV
Chroma subsampling : 4:2:0
Bit depth : 8 bits
Scan type : Progressive
Compression mode : Lossy
Bits/(Pixel*Frame) : 0.285
Stream size : 1.11 GiB (77%)
Writing library : XviD 1.2.1 (UTC 2008-12-04)

Audio
ID : 1
Format : AC-3
Format/Info : Audio Coding 3
Mode extension : CM (complete main)
Format settings, Endianness : Big
Codec ID : 2000
Duration : 1h 46mn
Bit rate mode : Constant
Bit rate : 448 Kbps
Channel(s) : 6 channels
Channel positions : Front: L C R, Side: L R, LFE
Sampling rate : 48.0 KHz
Bit depth : 16 bits
Compression mode : Lossy
Stream size : 342 MiB (23%)
Alignment : Split accross interleaves
Interleave, duration : 42 ms (1.00 video frame)
Interleave, preload duration : 500 ms
Скриншоты:




реклама партнёра


Вернуться к началу
 Профиль  
 
   Похожие торренты   Автор   Торрент   Размер 
В этой теме нет новых непрочитанных сообщений. Атака титанов. Фильм второй: Конец света / Shingeki no kyojin endo obu za wârudo (Синдзи Хигути ) [фэнтези, боевик, драма, приключения, 2015] WEB-DLRip, Dub [iTunes]

Dracon

11180 | 615

1.37 ГБ

В этой теме нет новых непрочитанных сообщений. Атака титанов. Фильм второй: Конец света / Shingeki no kyojin endo obu za wârudo (Синдзи Хигути ) [фэнтези, боевик, драма, приключения, 2015] WEB-DL 1080p, Dub [iTunes]

Dracon

4568 | 217

2.92 ГБ

В этой теме нет новых непрочитанных сообщений. Апокалипсис / End of the World [фантастика, боевик, комедия, приключения, 2013] BDRip 1080p, Mvo

Dracon

6 | 3

6.67 ГБ

В этой теме нет новых непрочитанных сообщений. 47 ронинов / 47 Ronin [фэнтези, боевик, приключения, 2013] BDRip 1080p, Dub+Sub [iTunes]

Dracon

575 | 11

8.26 ГБ

В этой теме нет новых непрочитанных сообщений. Конец света инкорпорейтед / End of Days, Inc. (фантастика, комедия, 2015) HDRip | L1

marya111

154 | 2

1.34 ГБ

В этой теме нет новых непрочитанных сообщений. Конец света инкорпорейтед / End of Days, Inc. [фантастика, комедия, 2016] HDRip, Avo

salma3

83 | 8

1.57 ГБ

В этой теме нет новых непрочитанных сообщений. Тор 2: Царство тьмы / Thor: The Dark World [фэнтези, боевик, приключения, 2013] BDRip 720p, Dub [iTunes]

Dracon

24 | 2

3.09 ГБ


СообщениеДобавлено: 21 ноя 2013, 10:12 

Не в сети
Зам. Админа
Аватара пользователя
Дата регистрации:
02 дек 2010, 12:39
Спасибо: 12461 / 214
Сообщения: 27968
:)


Вернуться к началу
 Профиль  
 
Начать новую тему Ответить на тему  [ Сообщений: 2 ] 




Для Мосгорсуда, Роскомнадзора и рекламодателей:: mosgorsud-torrent[собачка]yandex.ru