Торрент файл
скачать торрент магнет ссылка Добавлен: 14 сен 2013, 23:50
Размер: 744.96 МБ
Сидеров: 28
Личеров: 3
Статус: (salma3)
Автор

СообщениеДобавлено: 14 сен 2013, 23:50 

В сети
Супермодератор
Аватара пользователя
Дата регистрации:
15 фев 2012, 16:44
Возраст: 27
Спасибо: 5143 / 2090
Сообщения: 17495

Смерть на воде / Dead in the Water

Год выхода: 2006
Жанр: ужасы, триллер
Режиссер: Петр Узарович

В ролях: Майкл Харрисон Бэйкер, Тони Бессон, Бекки Боксер, Гэйл Браун, Аарон Бьюэр, Джеймс С. Бёрнс, Эрик Кларк, Рени Дармиенто, Дженни Флойд, Тейлор Герард Харт

О фильме:
Две молодые дуры (одна тупая блондинка другая просто тупая) за 50 долларов проникают на закрытую вечеринку, где знакомятся с её организатором, верней это блондинка знакомится потому, что другую воопче пускать не хотели. Он даёт им приглашение на следующую ещё более закрытую и более развратную тусу, которая будет, проходит на снятой по этому поводу яхте. Вот там то, как вы, наверное, догадались из названия и будет происходить всё действие этой киноленты, которая мне лично больше напомнила одну из серий киноальманаха Дневник Плейбоя, чем фильм ужасов, тем более снятый на Троме. Кстати о яхте, существует легенда, что на ней некий миллионер убил свою жену, чтоб забрать страховку, вот, вокруг, этого и крутится весь сюжет. Пару эротических сцен и несколько банальных убийств, вот чем мне запомнилась эта киношка..



Страна: США
Продолжительность: 01:24:25
Перевод: Авторский (одноголосый закадровый) [Дольский]

Файл
Качество: DVDRip
Формат файла: AVI
Видео кодек: XviD
Аудио кодек: AC3
Видео: XviD 1.2.1, 720x400, 1032 kbps, 0,149 Bits/(Pixel*Frame)
Звук: AC3, 48 kHz, 192 kbps, 2 ch



General
Complete name : H:Dead in the Water.2006.DVDRip.avi
Format : AVI
Format/Info : Audio Video Interleave
File size : 745 MiB
Duration : 1h 24mn
Overall bit rate : 1 234 Kbps
Writing application : VirtualDubMod 1.5.10.3 | http://www.virtualdub-fr.org || (build 2550/release)
Writing library : VirtualDubMod build 2550/release

Video
ID : 0
Format : MPEG-4 Visual
Format profile : Advanced Simple@L5
Format settings, BVOP : 3
Format settings, QPel : No
Format settings, GMC : No warppoints
Format settings, Matrix : Default (H.263)
Codec ID : XVID
Codec ID/Hint : XviD
Duration : 1h 24mn
Bit rate : 1 032 Kbps
Width : 720 pixels
Height : 400 pixels
Display aspect ratio : 16:9
Frame rate : 23.976 fps
Color space : YUV
Chroma subsampling : 4:2:0
Bit depth : 8 bits
Scan type : Progressive
Compression mode : Lossy
Bits/(Pixel*Frame) : 0.149
Stream size : 623 MiB (84%)
Writing library : XviD 1.2.1 (UTC 2008-12-04)

Audio
ID : 1
Format : AC-3
Format/Info : Audio Coding 3
Mode extension : CM (complete main)
Format settings, Endianness : Big
Codec ID : 2000
Duration : 1h 24mn
Bit rate mode : Constant
Bit rate : 192 Kbps
Channel(s) : 2 channels
Channel positions : Front: L R
Sampling rate : 48.0 KHz
Bit depth : 16 bits
Compression mode : Lossy
Stream size : 116 MiB (16%)
Alignment : Split accross interleaves
Interleave, duration : 42 ms (1.00 video frame)
Interleave, preload duration : 500 ms



Релиз от: Автор рипа: _Bathory_




реклама партнёра


Вернуться к началу
 Профиль Отправить личное сообщение  
 
   Похожие торренты   Автор   Торрент   Размер 
В этой теме нет новых непрочитанных сообщений. Смерть зимой / Dead of Winter [ужасы, триллер, драма, 1987] BDRip 720p, Mvo=Dvo+Avo+Sub

salma3

42 | 33

5.6 ГБ

В этой теме нет новых непрочитанных сообщений. Полная Луна в голубой воде / Full Moon in Blue Water [криминал, комедия, 1988] HDTVRip, Dvo

salma3

13 | 4

1.39 ГБ

В этой теме нет новых непрочитанных сообщений. Мертвая вода / Red Water [ужасы, триллер, 2008] DVDRip, Mvo

salma3

80 | 10

1.45 ГБ

В этой теме нет новых непрочитанных сообщений. Смерть в сети / The Den [ужасы, триллер, 2013] DVDRip, Dub [лицензия]

Dracon

968 | 33

1.36 ГБ

В этой теме нет новых непрочитанных сообщений. Слепые мертвецы 2: Возвращение слепых мертвецов / Blind Dead 2: Return of the Evil Dead [Ужасы, 1973] DVDRip, Avo

salma3

0 | 2

1.46 ГБ

В этой теме нет новых непрочитанных сообщений. Дрейф / Open Water 2: Adrift [триллер, драма, 2006] BDRip 720p, Dub+Dvo+Sub

salma3

24 | 7

7.91 ГБ

В этой теме нет новых непрочитанных сообщений. Кричащие мертвецы / Screaming Dead [ужасы, триллер, 2003] DVDRip, Avo

salma3

112 | 9

1.27 ГБ


Начать новую тему Ответить на тему  [ 1 сообщение ] 




Для Мосгорсуда, Роскомнадзора и рекламодателей:: mosgorsud-torrent[собачка]yandex.ru