Торрент файл
скачать торрент магнет ссылка Добавлен: 14 сен 2013, 14:50
Размер: 748.61 МБ
Сидеров: 21
Личеров: 2
Статус: (salma3)
Автор

СообщениеДобавлено: 14 сен 2013, 14:50 

Не в сети
Супермодератор
Аватара пользователя
Дата регистрации:
15 фев 2012, 16:44
Возраст: 27
Спасибо: 5130 / 2089
Сообщения: 17350

Воин-призрак / Ghost Warrior

Год выхода: 1985
Жанр: фантастика, боевик
Режиссер: Дж. Ларри Кэрролл
В ролях: Хироси Фудзиока, Джон Кэлвин, Джанет Джулиан, Чарльз Лампкин, Фрэнк Шуллер, Билл Мори, Энди Вуд, Роберт Кино, Джоан Фоли, Питер Ляпис

О фильме:
1552 год. На глазах у самурая Йоши убивают любимую, а его самого сбрасывают в ледяное озеро. В наши дни сохранившееся во льду тело Йоши доставляют в США в секретную лабораторию, где древнего воина возвращают к жизни.
Один из сотрудников лаборатории попытался стащить самурайский меч, за что и поплатился жизнью. Встревоженный самурай сбегает из больницы на свободу, где на улицах современного Лос-Анжелеса его окружает совершенно чужой и непонятный мир. Однако, когда он становится свидетелем нападения на беззащитного прохожего, Йоши спасает жертву грабежа.
Предводитель банды выслеживает самурая и приводит с собой подмогу. Йоши и на этот раз расправляется с подонками. Но затем охоту на него начинает и полиция, разыскивающая древнего воина из лаборатории. Через четыре столетия история повторяется — самурай вновь оказывается один против всех.


Страна: США
Студия: Albert Band International Productions Inc., Empire Pictures, Harkham Productions
Продолжительность: 01:17:31
Перевод: Профессиональный двухголосый (закадровый) [НТВ+]

Файл
Кодек: XviD
Качество: HDTVRip
Видео: XviD 73, 720x400, 1148 kbps, 25 fps, 0,160 Bits/(Pixel*Frame)
Звук: AC3, 48 kHz, 192 kbps, 2 ch
Субтитры: Отсутствуют

General
Complete name : H:Voin-prizrak.1985.HDTVRip.avi
Format : AVI
Format/Info : Audio Video Interleave
File size : 749 MiB
Duration : 1h 17mn
Overall bit rate : 1 350 Kbps
Writing application : VirtualDubMod 1.5.10.3 | http://www.virtualdub-fr.org || (build 2550/release)
Writing library : VirtualDubMod build 2550/release

Video
ID : 0
Format : MPEG-4 Visual
Format profile : Advanced Simple@L5
Format settings, BVOP : 3
Format settings, QPel : No
Format settings, GMC : No warppoints
Format settings, Matrix : Default (H.263)
Codec ID : XVID
Codec ID/Hint : XviD
Duration : 1h 17mn
Bit rate : 1 148 Kbps
Width : 720 pixels
Height : 400 pixels
Display aspect ratio : 16:9
Frame rate : 25.000 fps
Color space : YUV
Chroma subsampling : 4:2:0
Bit depth : 8 bits
Scan type : Progressive
Compression mode : Lossy
Bits/(Pixel*Frame) : 0.160
Stream size : 637 MiB (85%)
Writing library : XviD 73

Audio
ID : 1
Format : AC-3
Format/Info : Audio Coding 3
Mode extension : CM (complete main)
Format settings, Endianness : Big
Codec ID : 2000
Duration : 1h 17mn
Bit rate mode : Constant
Bit rate : 192 Kbps
Channel(s) : 2 channels
Channel positions : Front: L R
Sampling rate : 48.0 KHz
Bit depth : 16 bits
Compression mode : Lossy
Stream size : 106 MiB (14%)
Alignment : Split accross interleaves
Interleave, duration : 40 ms (1.00 video frame)
Interleave, preload duration : 500 ms

Релиз от: Автор рипа: _Bathory_




реклама партнёра


Вернуться к началу
 Профиль Отправить личное сообщение  
 
   Похожие торренты   Автор   Торрент   Размер 
В этой теме нет новых непрочитанных сообщений. Воин-призрак / Ghost Warrior [Фантастика, боевик, 1985] HDTV 1080i, Dvo

salma3

5 | 7

3.54 ГБ

В этой теме нет новых непрочитанных сообщений. Cпайпер: воин призрак / Sniper: Ghost Shooter [боевик, драма, военный, 2016] WEB-DL 720p, Mvo [iTunes]

salma3

0 | 0

3.11 ГБ

В этой теме нет новых непрочитанных сообщений. Cпайпер: воин призрак / Sniper: Ghost Shooter [Боевик, драма, военный, 2016] WEB-DL 1080p, Mvo [iTunes]

salma3

473 | 51

3.83 ГБ

В этой теме нет новых непрочитанных сообщений. Cнайпер: воин призрак / Sniper: Ghost Shooter [Боевик, драма, военный, 2016] WEB-DLRip-AVC, Mvo [iTunes]

salma3

185 | 20

2.3 ГБ

В этой теме нет новых непрочитанных сообщений. Американский киборг: Стальной воин / American Cyborg: Steel Warrior [фантастика, боевик, приключения, 1993] DVDRip, Avo

salma3

1 | 4

1.44 ГБ

В этой теме нет новых непрочитанных сообщений. Воин во времени / Time Warrior [фантастика, 2012] WEB-DLRip, Mvo

salma3

174 | 6

1.37 ГБ

В этой теме нет новых непрочитанных сообщений. Смертоносный воин / Death Warrior [Боевик, драма, 2009] HDRip, Mvo+Dvo

salma3

195 | 22

1.45 ГБ


Начать новую тему Ответить на тему  [ 1 сообщение ] 




Для Мосгорсуда, Роскомнадзора и рекламодателей:: mosgorsud-torrent[собачка]yandex.ru