Торрент файл
скачать торрент магнет ссылка Добавлен: 14 сен 2013, 14:49
Размер: 1.46 ГБ
Сидеров: 124
Личеров: 10
Статус: (salma3)
Автор

СообщениеДобавлено: 14 сен 2013, 14:49 

Не в сети
Зам. Админа
Аватара пользователя
Дата регистрации:
02 дек 2010, 12:39
Спасибо: 12583 / 214
Сообщения: 28049
«Всё взаимосвязано!»




Страна: США / iQ Films, Steelyard Pictures
Жанр: боевик, триллер, драма, криминал, детектив
Год выпуска: 2013
Продолжительность: 01:35:57

Перевод: Профессиональный (многоголосый)
Оригинальная аудиодорожка: нет
Cубтитры: нет

Режиссер: Леоне Маркуччи / Leone Marucci

В ролях: Кристофер Уокен, Девон Джирхарт, Кристиан Слэйтер, Энтони Андерсон, Фишер Эшворт, К’Орианка Килчер, Луиз Линтон, Ларри Кинг, Доминик «Таз» Александр, Никки Уилан...

Описание: Через двадцать минут жизнь в маленьком городке в Новом Орлеане круто изменится. Как? Вариантов — бесчисленное множество, ведь за эти 20 минут может произойти бессчётное количество событий. Полисмены, шпионы, бродяги, криминальные авторитеты, религиозные лидеры, городские зеваки… — каждый может совершить нечто, что развернёт течение истории в другом направлении. Ведь все мы неразрывно связаны друг с другом, даже если не подозреваем об этом! Выбор самого маленького человека может повлиять на самые большие события в мире…





Качество: HDRip / refined-tpof-720p.mkv + DVD9 R5
Формат: AVI

Видео: 720x400 (16:9), 23.976 fps, XVID ~1784 kbps avg, 0.258 bit/pixel
Аудио: Русский 48 kHz, AC3, 6 ch, 384.00 kbps Constant

Раздача от:
General
Complete name : Vlast.ubejdeniy.2013.P.HDRip_[Youtracker]_by_avproh.avi
Format : AVI
Format/Info : Audio Video Interleave
File size : 1.46 GiB
Duration : 1h 35mn
Overall bit rate : 2 177 Kbps
Writing application : VirtualDubModRus 1.5.10.2 (build 2542/release)
Writing library : VirtualDubMod build 2542/release

Video
ID : 0
Format : MPEG-4 Visual
Format profile : Advanced Simple@L5
Format settings, BVOP : 1
Format settings, QPel : No
Format settings, GMC : No warppoints
Format settings, Matrix : Custom
Codec ID : XVID
Codec ID/Hint : XviD
Duration : 1h 35mn
Bit rate : 1 784 Kbps
Width : 720 pixels
Height : 400 pixels
Display aspect ratio : 16:9
Frame rate : 23.976 fps
Color space : YUV
Chroma subsampling : 4:2:0
Bit depth : 8 bits
Scan type : Progressive
Compression mode : Lossy
Bits/(Pixel*Frame) : 0.258
Stream size : 1.20 GiB (82%)
Writing library : XviD 73

Audio
ID : 1
Format : AC-3
Format/Info : Audio Coding 3
Mode extension : CM (complete main)
Format settings, Endianness : Big
Codec ID : 2000
Duration : 1h 35mn
Bit rate mode : Constant
Bit rate : 384 Kbps
Channel count : 6 channels
Channel positions : Front: L C R, Side: L R, LFE
Sampling rate : 48.0 KHz
Bit depth : 16 bits
Compression mode : Lossy
Stream size : 264 MiB (18%)
Alignment : Split accross interleaves
Interleave, duration : 42 ms (1.00 video frame)
Interleave, preload duration : 500 ms






реклама партнёра


Вернуться к началу
 Профиль  
 
   Похожие торренты   Автор   Торрент   Размер 
В этой теме нет новых непрочитанных сообщений. Власть страха / Коллекционер костей / The Bone Collector [триллер, драма, детектив, 1999] BDRip, Dub [Лицензия]

salma3

82 | 8

1.45 ГБ

В этой теме нет новых непрочитанных сообщений. Власть в ночном городе / Power [S01] [Драма, Криминал, 2014] WEB-DL 1080p, Mvo+Sub

Dracon

19 | 16

18 ГБ

В этой теме нет новых непрочитанных сообщений. Недооформлен Абсолютная власть / Imperium (Триллер, драма, криминал, 2016) HDRip от MegaPeer | P Данный торрент является блокированным, причина: недооформленный торрент

marya111

0 | 0

745.44 МБ

В этой теме нет новых непрочитанных сообщений. Власть в ночном городе / Power [Seasons 1 epizodes 1-8 of 8] [Драма, Криминал, 2014] WEB-DL 720p, Mvo+Sub

Dracon

0 | 2

15.43 ГБ

В этой теме нет новых непрочитанных сообщений. Власть огня / Reign of Fire [Фантастика, боевик, 2002] BDRip 720p, Dub [Лицензия]

salma3

53 | 7

7.74 ГБ

В этой теме нет новых непрочитанных сообщений. Власть в ночном городе / Power [s02] (Джон Дэвид Коулз, Энтони Хемингуэй, Джордж Тиллман мл.) [Драма, 2015] WEB-DL 1080p [Amedia]

Dracon

42 | 27

23.38 ГБ

В этой теме нет новых непрочитанных сообщений. Власть в ночном городе / Power [S2] (Джон Дэвид Коулз, Энтони Хемингуэй, Джордж Тиллман мл.) [Драма, 2015] HDTVRip [Amedia]

Dracon

304 | 295

7.34 ГБ


Начать новую тему Ответить на тему  [ 1 сообщение ] 




Для Мосгорсуда, Роскомнадзора и рекламодателей:: mosgorsud-torrent[собачка]yandex.ru