Торрент файл
скачать торрент магнет ссылка Добавлен: 14 сен 2013, 14:29
Размер: 744.67 МБ
Сидеров: 68
Личеров: 3
Статус: (salma3)
Автор

СообщениеДобавлено: 14 сен 2013, 14:29 

Не в сети
Супермодератор
Аватара пользователя
Дата регистрации:
15 фев 2012, 16:44
Возраст: 28
Спасибо: 6577 / 2143
Сообщения: 43865

Власть убеждений / The Power of Few

Год выхода: 2013
Жанр: боевик, триллер, драма
Режиссер: Леоне Маркуччи / Leone Marucci

В ролях: Кристофер Уокен, Девон Джирхарт, Кристиан Слэйтер, Энтони Андерсон, Фишер Эшворт, К’Орианка Килчер, Луиз Линтон, Ларри Кинг, Доминик «Таз» Александр, Никки Уилан...

О фильме:
Через двадцать минут жизнь в маленьком городке в Новом Орлеане круто изменится. Как? Вариантов — бесчисленное множество, ведь за эти 20 минут может произойти бессчётное количество событий. Полисмены, шпионы, бродяги, криминальные авторитеты, религиозные лидеры, городские зеваки… — каждый может совершить нечто, что развернёт течение истории в другом направлении. Ведь все мы неразрывно связаны друг с другом, даже если не подозреваем об этом! Выбор самого маленького человека может повлиять на самые большие события в мире…



Страна: США
Продолжительность: 01:35:57
Перевод: Профессиональный (многоголосый)

Файл
Качество: HDRip
Формат файла: AVI
Видео кодек: XviD
Аудио кодек: MP3
Видео: 688x384 (16:9), 23.976 fps, XVID ~948 kbps avg, 0.150 bit/pixel
Аудио: Русский 48 kHz, MP3, 2 ch, 128.00 kbps Constant




General
Complete name : Vlast.ubejdeniy.2013.P.HDRip.745MB_[Youtracker]_by_avproh.avi
Format : AVI
Format/Info : Audio Video Interleave
File size : 745 MiB
Duration : 1h 35mn
Overall bit rate : 1 085 Kbps
Writing application : VirtualDubModRus 1.5.10.2 (build 2542/release)
Writing library : VirtualDubMod build 2542/release

Video
ID : 0
Format : MPEG-4 Visual
Format profile : Advanced Simple@L5
Format settings, BVOP : 1
Format settings, QPel : No
Format settings, GMC : No warppoints
Format settings, Matrix : Custom
Codec ID : XVID
Codec ID/Hint : XviD
Duration : 1h 35mn
Bit rate : 948 Kbps
Width : 688 pixels
Height : 384 pixels
Display aspect ratio : 16:9
Frame rate : 23.976 fps
Color space : YUV
Chroma subsampling : 4:2:0
Bit depth : 8 bits
Scan type : Progressive
Compression mode : Lossy
Bits/(Pixel*Frame) : 0.150
Stream size : 650 MiB (87%)
Writing library : XviD 73

Audio
ID : 1
Format : MPEG Audio
Format version : Version 1
Format profile : Layer 3
Mode : Joint stereo
Codec ID : 55
Codec ID/Hint : MP3
Duration : 1h 35mn
Bit rate mode : Constant
Bit rate : 128 Kbps
Channel count : 2 channels
Sampling rate : 48.0 KHz
Compression mode : Lossy
Stream size : 87.9 MiB (12%)
Alignment : Aligned on interleaves
Interleave, duration : 42 ms (1.00 video frame)
Interleave, preload duration : 504 ms


Раздача от:




реклама партнёра


Вернуться к началу
 Профиль Отправить личное сообщение  
 
   Похожие торренты   Автор   Торрент   Размер 
В этой теме нет новых непрочитанных сообщений. Власть в ночном городе / Power [S04] [Драма, 2017] WEBRip, Mvo [IdeaFilm]

salma3

46 | 151

8.78 ГБ

В этой теме нет новых непрочитанных сообщений. Недооформлен Абсолютная власть / Imperium (Триллер, драма, криминал, 2016) HDRip от MegaPeer | P Данный торрент является блокированным, причина: недооформленный торрент

marya111

0 | 0

745.44 МБ

В этой теме нет новых непрочитанных сообщений. Власть в ночном городе / Power [S04] [Драма, 2017] WEBRip 1080p, Mvo [IdeaFilm]

salma3

13 | 59

48.08 ГБ

В этой теме нет новых непрочитанных сообщений. Власть в ночном городе / Power [S04] [Драма, 2017] WEBRip 720p, Mvo [IdeaFilm]

salma3

7 | 31

32.1 ГБ

В этой теме нет новых непрочитанных сообщений. Власть в ночном городе / Power [s02] (Джон Дэвид Коулз, Энтони Хемингуэй, Джордж Тиллман мл.) [Драма, 2015] WEB-DL 1080p [Amedia]

Dracon

42 | 27

23.38 ГБ

В этой теме нет новых непрочитанных сообщений. Власть в ночном городе / Power [S2] (Джон Дэвид Коулз, Энтони Хемингуэй, Джордж Тиллман мл.) [Драма, 2015] HDTVRip [Amedia]

Dracon

304 | 295

7.34 ГБ

В этой теме нет новых непрочитанных сообщений. Власть в ночном городе / Power [S2] (Джон Дэвид Коулз, Энтони Хемингуэй, Джордж Тиллман мл.) [Драма, 2015] HDTVRip 720p [Amedia]

Dracon

246 | 260

11.72 ГБ


Начать новую тему Ответить на тему  [ 1 сообщение ] 




Для Мосгорсуда, Роскомнадзора и рекламодателей:: mosgorsud-torrent[собачка]yandex.ru