Торрент файл
скачать торрент магнет ссылка Добавлен: 14 сен 2013, 09:47
Размер: 1.5 ГБ
Сидеров: 384
Личеров: 55
Статус: (PriZraK)
Автор

СообщениеДобавлено: 14 сен 2013, 09:47 

Не в сети
Зам. Админа
Аватара пользователя
Дата регистрации:
02 дек 2010, 12:39
Спасибо: 12623 / 214
Сообщения: 28012
Иллюзия обмана / Now You See Me
«Чем вы ближе, тем меньше вы видите.»


Страна: Франция, США / Kurtzman Orci Paper Products, Second Line Stages, See Me Louisiana, SOIXAN7E QUIN5E, Summit Entertainment
Жанр: триллер, криминал, детектив
Год выпуска: 2013
Продолжительность: 01:55:20

Перевод: Профессиональный (полное дублирование) [Лицензия]
Cубтитры: Нет

Режиссер: Луи Летерье / Louis Leterrier

В ролях: Марк Руффало, Джесси Айзенберг, Вуди Харрельсон, Айла Фишер, Дэйв Франко, Морган Фриман, Мелани Лоран, Майкл Кейн, Майкл Келли, Коммон

Описание: Команда лучших иллюзионистов мира проворачивает дерзкие ограбления прямо во время своих шоу, играя в кошки-мышки с агентами ФБР.



Релиз: |

Автор рипа: S.T.A.L.K.E.R.2 (aka Stalker oK)

Сэмпл: http://multi-up.com/899595

Качество: BDRip-AVC [BD-Remux 1080p]
Формат: MKV
Видео кодек: AVC
Аудио кодек: AC3
Видео: 1418 Кбит/сек, 960*400 (2,40:1), в 23,976 кадр/сек, AVC
Аудио: Russian, 448 Кбит/сек, 48,0 КГц, 16 бит, 6 канала(ов), AC-3

Общее
Уникальный идентификатор : 234488620703773640968530097020660076985 (0xB068DD997A7E0C388526A237440FD1B9)
Полное имя : H:Иллюзия обманаIlljuzija_obmana_2013_BDRip_AVC_Dub__stalkerok_.mkv
Формат : Matroska
Размер файла : 1,50 Гбайт
Продолжительность : 1 ч. 55 м.
Общий поток : 1860 Кбит/сек
Название фильма : Now You See Me 2013 (Youtracker) (Rip by Stalker oK)
Дата кодирования : UTC 2013-09-13 20:50:35
Программа кодирования : mkvmerge v6.2.0 ('Promised Land') built on Apr 28 2013 12:22:01
Библиотека кодирования : libebml v1.3.0 + libmatroska v1.4.0

Видео
Идентификатор : 1
Формат : AVC
Формат/Информация : Advanced Video Codec
Профиль формата : High@L4.1
Параметр CABAC формата : Да
Параметр ReFrames формата : 11 кадры
Идентификатор кодека : V_MPEG4/ISO/AVC
Продолжительность : 1 ч. 55 м.
Битрейт : 1418 Кбит/сек
Ширина : 960 пикс.
Высота : 400 пикс.
Соотношение сторон : 2,40:1
Частота кадров : 23,976 кадр/сек
Цветовое пространство : YUV
Подвыборка цветности : 4:2:0
Битовая глубина : 8 бит
Тип развёртки : Прогрессивная
Бит/(Пиксели*Кадры) : 0.154
Размер потока : 1,11 Гбайт (74%)
Библиотека кодирования : x264 core 130 r2273 b3065e6
Настройки программы : cabac=1 / ref=11 / deblock=1:-2:-2 / analyse=0x3:0x133 / me=umh / subme=11 / psy=1 / psy_rd=1.05:0.15 / mixed_ref=1 / me_range=32 / chroma_me=1 / trellis=2 / 8x8dct=1 / cqm=0 / deadzone=21,11 / fast_pskip=0 / chroma_qp_offset=-3 / threads=6 / lookahead_threads=1 / sliced_threads=0 / nr=0 / decimate=0 / interlaced=0 / bluray_compat=0 / constrained_intra=0 / bframes=12 / b_pyramid=2 / b_adapt=2 / b_bias=0 / direct=3 / weightb=1 / open_gop=0 / weightp=2 / keyint=240 / keyint_min=23 / scenecut=40 / intra_refresh=0 / rc_lookahead=60 / rc=2pass / mbtree=1 / bitrate=1418 / ratetol=2.0 / qcomp=0.65 / qpmin=0 / qpmax=69 / qpstep=4 / cplxblur=20.0 / qblur=0.5 / vbv_maxrate=17000 / vbv_bufsize=20000 / nal_hrd=none / ip_ratio=1.50 / aq=2:0.90

Аудио
Идентификатор : 2
Формат : AC-3
Формат/Информация : Audio Coding 3
Расширение режима : CM (complete main)
Идентификатор кодека : A_AC3
Продолжительность : 1 ч. 55 м.
Вид битрейта : Постоянный
Битрейт : 448 Кбит/сек
Канал(ы) : 6 канала(ов)
Расположение каналов : Front: L C R, Side: L R, LFE
Частота : 48,0 КГц
Битовая глубина : 16 бит
Метод сжатия : С потерями
Размер потока : 370 Мбайт (24%)
Заголовок : Dub (Лицензия)
Язык : Russian








реклама партнёра


Вернуться к началу
 Профиль  
 
   Похожие торренты   Автор   Торрент   Размер 
В этой теме нет новых непрочитанных сообщений. Иллюзия обмана / Now You See Me [триллер, криминал, детектив, 2013] HDRip, Dub [iPad]

salma3

135 | 8

1.55 ГБ

В этой теме нет новых непрочитанных сообщений. Иллюзия обмана 2 / Now You See Me 2 [Боевик, триллер, комедия, 2016] HDRip, Dub [Лицензия]

salma3

689 | 10

1.45 ГБ

В этой теме нет новых непрочитанных сообщений. Иллюзия убийства / F/X [боевик, триллер, криминал, 1986] BDRip 720p, Mvo+Avo+Sub

salma3

98 | 27

5.23 ГБ

В этой теме нет новых непрочитанных сообщений. Теория заговора / Zulu [Триллер, драма, криминал, 2013] BDRip 720p, Mvo+Sub [Лицензия]

Dracon

143 | 5

5.71 ГБ

В этой теме нет новых непрочитанных сообщений. Секреты обмана / Secrets of Deception [боевик, триллер, драма, криминал, 2017] WEB-DLRip, Mvo

salma3

1771 | 478

1.37 ГБ

В этой теме нет новых непрочитанных сообщений. Иллюзия убийства / F/X [Триллер, детектив, комедия, 1986] BDRip 1080p, Mvo+Avo+Sub

salma3

106 | 9

8.42 ГБ

В этой теме нет новых непрочитанных сообщений. Погнали! / Getaway [боевик, криминал, 2013] BDRip 1080p, Mvo [Лицензия]

salma3

0 | 42

6.65 ГБ


Начать новую тему Ответить на тему  [ 1 сообщение ] 




Для Мосгорсуда, Роскомнадзора и рекламодателей:: mosgorsud-torrent[собачка]yandex.ru