Торрент файл
скачать торрент магнет ссылка Добавлен: 13 сен 2013, 22:24
Размер: 1.46 ГБ
Сидеров: 51
Личеров: 3
Статус: (salma3)
Автор

СообщениеДобавлено: 13 сен 2013, 22:24 

Не в сети
Супермодератор
Аватара пользователя
Дата регистрации:
15 фев 2012, 16:44
Возраст: 28
Спасибо: 6404 / 2128
Сообщения: 37840

Глаза змеи / Snake Eyes

Год выхода: 1998
Жанр: Триллер, Криминал, Детектив
Режиссер: Брайан Де Пальма

В ролях: Николас Кейдж, Гэри Синиз, Джон Хёрд, Карла Гуджино, Стэн Шоу, Кевин Данн, Майкл Рисполи, Джоэл Фабиани, Луис Гузман, Дэвид Энтони Хиггинс и др.

О фильме:
Рик Санторо — эксцентричный детектив полиции Атлантик-Сити — приходит посмотреть на своего спортивного кумира и заодно поправить свои финансовые дела на тотализаторе. Внезапная стрельба во время поединка превращает 14 тысяч болельщиков в свидетелей политического убийства. Показания свидетелей, видеозаписи электронной системы наблюдения за казино и информация, полученная от таинственной незнакомки в белом, — все это вместе рисует перед видавшим виды Санторо настолько невероятную картину убийства, что он просто отказывается в нее верить…



Страна: США
Продолжительность: 1:38:17
Перевод: Профессиональный (полное дублирование)

Файл
Качество: HDRip c BDRip |1080p|
Формат файла: AVI
Видео кодек: XviD
Аудио кодек: AC3
Видео: 720x304, 23.976 fps, ~1669 kbps
Звук: AC3, 6 CH, 448 Kbps



Общее
Полное имя : Glaza_Zmei.HDRip.avi
Формат : AVI
Формат/Информация : Audio Video Interleave
Размер файла : 1,46 Гбайт
Продолжительность : 1 ч. 38 м.
Общий поток : 2126 Кбит/сек
Программа кодирования : VirtualDubMod 1.5.10.2 (build 2542/release)
Библиотека кодирования : VirtualDubMod build 2542/release

Видео
Идентификатор : 0
Формат : MPEG-4 Visual
Профиль формата : Advanced Simple@L5
Параметр BVOP формата : 1
Параметр QPel формата : Нет
Параметр GMC формата : Без точки перехода
Параметр матрицы формата : Выборочная
Идентификатор кодека : XVID
Идентификатор кодека/Подсказка : XviD
Продолжительность : 1 ч. 38 м.
Битрейт : 1669 Кбит/сек
Ширина : 720 пикс.
Высота : 304 пикс.
Соотношение сторон : 2,35:1
Частота кадров : 23,976 кадр/сек
Цветовое пространство : YUV
Подвыборка цветности : 4:2:0
Битовая глубина : 8 бит
Тип развёртки : Прогрессивная
Метод сжатия : С потерями
Бит/(Пиксели*Кадры) : 0.318
Размер потока : 1,15 Гбайт (78%)
Библиотека кодирования : XviD 73

Аудио
Идентификатор : 1
Формат : AC-3
Формат/Информация : Audio Coding 3
Расширение режима : CM (complete main)
Идентификатор кодека : 2000
Продолжительность : 1 ч. 38 м.
Вид битрейта : Постоянный
Битрейт : 448 Кбит/сек
Канал(ы) : 6 канала(ов)
Расположение каналов : Front: L C R, Side: L R, LFE
Частота : 48,0 КГц
Битовая глубина : 16 бит
Метод сжатия : С потерями
Задержка видео : 1 с. 0 мс.
Размер потока : 315 Мбайт (21%)
Выравнивание : Разделение по промежуткам
Продолжительность промежутка : 42 мс. (1,00 видеокадр)
Время предзагрузки промежутка : 500 ms


Релиз от: Leon-masl




реклама партнёра


Вернуться к началу
 Профиль Отправить личное сообщение  
 
   Похожие торренты   Автор   Торрент   Размер 
В этой теме нет новых непрочитанных сообщений. Глаза змеи / Snake Eyes [триллер, криминал, детектив, 1998] HDRip-AVC, Dub

salma3

47 | 15

1.46 ГБ

В этой теме нет новых непрочитанных сообщений. Глаза змеи / Snake Eyes [Триллер, криминал, детектив, 1998] BDRip 720p, dub+mvo+avo

salma3

71 | 5

7.88 ГБ

В этой теме нет новых непрочитанных сообщений. Глаза Токио / Tokyo Eyes [Триллер, комедия, 1998] DVDRip, Dvo

salma3

9 | 4

1.46 ГБ

В этой теме нет новых непрочитанных сообщений. Глаза дракона / Dragon Eyes [боевик, триллер, драма, криминал, 2012] BDRemux 1080p, Mvo

salma3

9 | 3

18.11 ГБ

В этой теме нет новых непрочитанных сообщений. Глаза звезды / Звездные глаза / Starry Eyes [ужасы, 2014] WEB-DLRip, dvo

Dracon

249 | 13

1.4 ГБ

В этой теме нет новых непрочитанных сообщений. Глаза звезды / Звездные глаза / Starry Eyes [ужасы, 2014] WEB-DL 720p, dvo

Dracon

80 | 5

2.9 ГБ

В этой теме нет новых непрочитанных сообщений. Опасные игры / Опасная игра / Snake Eyes [драма, 1993] HDRip, Dvo

salma3

22 | 9

1.44 ГБ


Начать новую тему Ответить на тему  [ 1 сообщение ] 




Для Мосгорсуда, Роскомнадзора и рекламодателей:: mosgorsud-torrent[собачка]yandex.ru