Торрент файл
скачать торрент магнет ссылка Добавлен: 12 сен 2013, 10:35
Размер: 1.46 ГБ
Сидеров: 566
Личеров: 23
Статус: (salma3)
Автор

СообщениеДобавлено: 12 сен 2013, 10:35 

Не в сети
Зам. Админа
Аватара пользователя
Дата регистрации:
02 дек 2010, 12:39
Спасибо: 12460 / 214
Сообщения: 27968
Пена дней / L'ecume des jours

Страна: Франция, Бельгия
Жанр: фэнтези, мелодрама, драма
Год выпуска: 2013
Продолжительность: 02:10:47
Перевод: Профессиональный (дублированный) Лицензия
Cубтитры: нет

Режиссер: Мишель Гондри / Michel Gondry

В ролях: Одри Тоту, Омар Си, Ромен Дюрис, Гад Эльмалех, Ален Шаба, Тилли Скотт Перерсен, Айса Майга, Наташа Ренье, Филипп Торретон, Шарлотта Лебон

Описание: История любви, разворачивающаяся в фантастическом мире, где влюбленные летают на свидания в розовых тучках и танцуют на потолке, где в коридоре обычной квартиры живет солнце, а мыши-домоправители ведут беседы с кошками, где цветы прорастают внутри людей и тепло человеческого сердца способно уничтожить самое опасное оружие...
По роману Бориса Виана.



Качество видео: HDRip
Формат видео: AVI
Видео кодек: XviD
Аудио кодек: AC3
Видео: 688x368 (1.87:1), 24.000 fps, XviD build 73 ~1400 kbps avg, 0.23 bit/pixel
Аудио: 48 kHz, AC3 Dolby Digital, 2/0 (L,R) ch, ~192 kbps

Раздача от:


D:Мои рипыL.Ecume.Des.Jours.2013.HDRip.dexter_lex.avi
General
Complete name : D:Мои рипыL.Ecume.Des.Jours.2013.HDRip.dexter_lex.avi
Format : AVI
Format/Info : Audio Video Interleave
File size : 1.46 GiB
Duration : 2h 10mn
Overall bit rate : 1 602 Kbps
Writing application : VirtualDubMod 1.5.10.3 | http://www.virtualdub-fr.org || (build 2550/release)
Writing library : VirtualDubMod build 2550/release
Video #0
ID : 0
Format : MPEG-4 Visual
Format profile : Advanced Simple@L5
Format settings, BVOP : 1
Format settings, QPel : No
Format settings, GMC : No warppoints
Format settings, Matrix : Custom
Codec ID : XVID
Codec ID/Hint : XviD
Duration : 2h 10mn
Bit rate : 1 400 Kbps
Width : 688 pixels
Height : 368 pixels
Display aspect ratio : 1.870
Frame rate : 24.000 fps
Color space : YUV
Chroma subsampling : 4:2:0
Bit depth : 8 bits
Scan type : Progressive
Compression mode : Lossy
Bits/(Pixel*Frame) : 0.230
Stream size : 1.28 GiB (87%)
Writing library : XviD 73
Audio #1
ID : 1
Format : AC-3
Format/Info : Audio Coding 3
Mode extension : CM (complete main)
Codec ID : 2000
Duration : 2h 10mn
Bit rate mode : Constant
Bit rate : 192 Kbps
Channel(s) : 2 channels
Channel positions : Front: L R
Sampling rate : 48.0 KHz
Bit depth : 16 bits
Compression mode : Lossy
Stream size : 180 MiB (12%)
Alignment : Split accross interleaves
Interleave, duration : 42 ms (1.00 video frame)
Interleave, preload duration : 500 ms




реклама партнёра


Вернуться к началу
 Профиль  
 
   Похожие торренты   Автор   Торрент   Размер 
В этой теме нет новых непрочитанных сообщений. Прекрасные создания [фэнтези, драма, мелодрама, 2013] HDRip-AVC, Dub [Лицензия]

Dracon

7 | 2

2.08 ГБ

В этой теме нет новых непрочитанных сообщений. Рога / Horns (Александр Ажа) [ужасы, фэнтези, триллер, драма, 2013] HDRip, Mvo [Лицензия]

Dracon

184 | 10

1.37 ГБ

В этой теме нет новых непрочитанных сообщений. Иммигрантка / The Immigrant [драма, мелодрама, 2013] HDRip, Mvo [лицензия]

Dracon

989 | 29

1.46 ГБ

В этой теме нет новых непрочитанных сообщений. Третья персона / Third Person [драма, мелодрама, 2013] HDRip, Mvo [Лицензия]

Dracon

99 | 3

1.46 ГБ

В этой теме нет новых непрочитанных сообщений. Третья персона / Third Person [драма, мелодрама, 2013] HDRip, Mvo [Лицензия]

Dracon

33 | 2

2.06 ГБ

В этой теме нет новых непрочитанных сообщений. Довольно слов / Enough Said [драма, мелодрама, комедия, 2013] HDRip, Mvo [Лицензия]

Dracon

481 | 7

1.41 ГБ

В этой теме нет новых непрочитанных сообщений. Хоть раз в жизни / Begin again [драма, мелодрама, комедия, 2013] HDRip, Dub [Лицензия]

Dracon

839 | 17

2.05 ГБ


СообщениеДобавлено: 12 сен 2013, 10:59 

Не в сети
Зам. Админа
Аватара пользователя
Дата регистрации:
02 дек 2010, 12:39
Спасибо: 12460 / 214
Сообщения: 27968
Если хотите что бы ваши мозги были как Пена дней...то вам сюда :rofl: :wall:


Вернуться к началу
 Профиль  
 
Начать новую тему Ответить на тему  [ Сообщений: 2 ] 




Для Мосгорсуда, Роскомнадзора и рекламодателей:: mosgorsud-torrent[собачка]yandex.ru