Торрент файл
скачать торрент магнет ссылка Добавлен: 11 сен 2013, 09:38
Размер: 771.78 МБ
Сидеров: 138
Личеров: 11
Статус: (salma3)
Автор

СообщениеДобавлено: 11 сен 2013, 09:38 

Не в сети
Зам. Админа
Аватара пользователя
Дата регистрации:
02 дек 2010, 12:39
Спасибо: 12460 / 214
Сообщения: 27968
«Шесть френдов. Одна команда. Грандиозное шоу. Победа без вариантов!»




Страна: Великобритания / Vertigo Films
Жанр: комедия, семейный
Год выпуска: 2013
Продолжительность: 01:42:49

Перевод: Профессиональный (дублированный)
Оригинальная аудиодорожка: нет
Cубтитры: нет

Режиссер: Бен Грегор / Ben Gregor

В ролях: Тео Стивенсон, Акай Осей-Мэнсфилд. Флер Хаудейк, Доминик Герман-Дэй, Амелия Кларксон, Гамал Тосифа, Эшли Дженсен, Хью Дэннис, Кевин Бишоп, Эшли Уолтерс...

Роли дублировали: Лиза Мартиросова, Александр Дасевич

Описание: Герой фильма, энергичный и бойкий Этан, объединяется со скромным профессиональным стритдансером Джейденом для участия в очередном чемпионате по уличным танцам. Только своей победой ребята смогут спасти свой молодежный клуб от закрытия. И они сделают это, во что бы то ни стало…





Качество: BDRip / Blu-ray 3D 1080p
Формат: AVI

Видео: 656x352 (1.85:1), 23.976 fps, XVID ~912 kbps avg, 0.165 bit/pixel
Аудио: Русский 48 kHz, MP3, 2 ch, 128.00 kbps Constant

Раздача от:
Общее
Полное имя : Ulichnye.tancy.3.2013.D.BDRip.745MB_[Youtracker]_by_avproh.avi
Формат : AVI
Формат/Информация : Audio Video Interleave
Размер файла : 772 Мбайт
Продолжительность : 1 ч. 42 м.
Общий поток : 1049 Кбит/сек
Программа кодирования : VirtualDubModRus 1.5.10.2 (build 2542/release)
Библиотека кодирования : VirtualDubMod build 2542/release

Видео
Идентификатор : 0
Формат : MPEG-4 Visual
Профиль формата : Advanced Simple@L5
Параметр BVOP формата : 1
Параметр QPel формата : Нет
Параметр GMC формата : Без точки перехода
Параметр матрицы формата : Выборочная
Идентификатор кодека : XVID
Идентификатор кодека/Подсказка : XviD
Продолжительность : 1 ч. 42 м.
Битрейт : 912 Кбит/сек
Ширина : 656 пикселей
Высота : 352 пикселя
Соотношение сторон : 1,85:1
Частота кадров : 23,976 кадра/сек
Цветовое пространство : YUV
Субдискретизация насыщенности : 4:2:0
Битовая глубина : 8 бит
Тип развёртки : Прогрессивная
Метод сжатия : С потерями
Бит/(Пиксели*Кадры) : 0.165
Размер потока : 671 Мбайт (87%)
Библиотека кодирования : XviD 73

Аудио
Идентификатор : 1
Формат : MPEG Audio
Версия формата : Version 1
Профиль формата : Layer 3
Режим : Joint stereo
Расширение режима : MS Stereo
Идентификатор кодека : 55
Идентификатор кодека/Подсказка : MP3
Продолжительность : 1 ч. 42 м.
Вид битрейта : Постоянный
Битрейт : 128 Кбит/сек
Каналы : 2 канала
Частота : 48,0 КГц
Метод сжатия : С потерями
Размер потока : 94,1 Мбайт (12%)
Выравнивание : Соединение по промежуткам
Продолжительность промежутка : 42 мс. (1,00 видеокадр)
Время предзагрузки промежутка : 504 мс.






реклама партнёра


Вернуться к началу
 Профиль  
 
   Похожие торренты   Автор   Торрент   Размер 
В этой теме нет новых непрочитанных сообщений. Зажигая звёзды / Set Fire to the Stars (Энди Годдар) [Драма, 2014] BDRip 1080p, Mvo [ITunes]

Dracon

20 | 3

6.82 ГБ

В этой теме нет новых непрочитанных сообщений. Виноваты звезды / The Fault in Our Stars [Драма, мелодрама, 2014] BDRip 1080p, Dub+Sub [лицензия | Extended Cut]

Dracon

529 | 49

10.34 ГБ

В этой теме нет новых непрочитанных сообщений. Зажигая звёзды / Set Fire to the Stars (Энди Годдар) [Драма, 2014] BDRip 720p, Mvo [ITunes]

Dracon

12 | 3

4.63 ГБ

В этой теме нет новых непрочитанных сообщений. Супермодели Секс Звёзды / Supermodel Sex Stars (2007) DVDRip

max77777

4 | 5

945.74 МБ

В этой теме нет новых непрочитанных сообщений. Отцепись от звезд / Срывая звёзды / Unhook the Stars [мелодрама, 1996] HDRip, Mvo

salma3

13 | 2

1.44 ГБ

В этой теме нет новых непрочитанных сообщений. Виноваты звезды / The Fault in Our Stars [драма, мелодрама, 2014] HDRip, Dub [Лицензия]

Dracon

30 | 2

2.05 ГБ

В этой теме нет новых непрочитанных сообщений. Зажигая звёзды / Set Fire to the Stars (Энди Годдар) [Драма, 2014] HDRip, Mvo [ITunes]

Dracon

16 | 1

1.46 ГБ


Начать новую тему Ответить на тему  [ 1 сообщение ] 




Для Мосгорсуда, Роскомнадзора и рекламодателей:: mosgorsud-torrent[собачка]yandex.ru